Поиск

(Jazz-Funk, Contemporary Jazz) Charles Glenn - The Bass King - 2007, FLAC (image+.cue), lossless

(Jazz-Funk, Contemporary Jazz) Charles Glenn - The Bass King - 2007, FLAC (image+.cue), lossless
Треклист:
Charles Glenn - The Bass King
Жанр: Jazz-Funk, Contemporary Jazz
Год выпуска диска: 2007
Производитель диска: производитель неизвестен
Аудио кодек: FLAC
Тип рипа: image+.cue
Битрейт аудио: lossless
Продолжительность: 45:18
Происxождение рипа: Собственный рип из личной коллекции
Трэклист:
1. Touch (Glenn, Weathers) 3:38
2. If You Believe (Glenn) 4:09
3. King's Jam (Glenn) 5:06
4. You Are So Beautiful (Preston, Fisher) 5:11
5. Cruisin (Glenn) 4:49
6. You're All I Need (Glenn, Thomas) 4:45
7. Sound Check (Glenn) 4:31
8. Satisfy My Appetite (Glenn, Coleman) 4:18
9. Stephanie (Glenn) 4:14
10. In The Dark (Glenn) 4:34
Доп. информация:
Исполнители:
Charles "King C" Glenn - Bass Guitar, Keys, Drum Programming on all songs
Waldo Weathers - Sax
Mark Doyle - Guitar
Kelvin Holly - Guitar
Rodney "Spanky" Thomas - Keys, Strings, Rhodes
Rudy's Camp - Background Vocals
Jessie Boyce - Piano
Wade Magnus Austin - Rhodes
Mark Singleton - Guitar
Michael Wycoff - Piano, Vocals
Eddie Coleman Jr. - Vocals
Vincent La Bauve - Guitar
 
EAC Report
Exact Audio Copy V0.99 prebeta 4 from 23. January 2008
Отчёт EAC об извлечении, выполненном 18. марта 2010, 7:43
Charles Glenn / The Bass King
Дисковод: ASUS DRW-1814BLT Adapter: 2 ID: 0
Режим чтения : Достоверность
Использование точного потока : Да
Отключение кэша аудио : Да
Использование указателей C2 : Нет
Коррекция смещения при чтении : 6
Способность читать области Lead-in и Lead-out : Нет
Заполнение пропущенных сэмплов тишиной : Да
Удаление блоков с тишиной в начале и конце : Нет
При вычислениях CRC использовались нулевые сэмплы : Да
Интерфейс : Встроенный Win32-интерфейс для Win NT/2000
Выходной формат : Пользовательский кодировщик
Выбранный битрейт : 768 kBit/s
Качество : Высокий
Добавление ID3-тэга : Нет
Утилита сжатия : D:\Program Files\Exact Audio Copy\Flac\Flac.exe
Дополнительные параметры : -8 --delete-input-file -o "D:\CDImage.flac" -V %s
TOC извлечённого CD
Трек | Старт | Длительность | Начальный сектор | Конечный сектор
---------------------------------------------------------------------
1 | 0:00.00 | 3:38.36 | 0 | 16385
2 | 3:38.36 | 4:09.00 | 16386 | 35060
3 | 7:47.36 | 5:06.50 | 35061 | 58060
4 | 12:54.11 | 5:11.49 | 58061 | 81434
5 | 18:05.60 | 4:49.39 | 81435 | 103148
6 | 22:55.24 | 4:44.51 | 103149 | 124499
7 | 27:40.00 | 4:31.00 | 124500 | 144824
8 | 32:11.00 | 4:18.47 | 144825 | 164221
9 | 36:29.47 | 4:14.46 | 164222 | 183317
10 | 40:44.18 | 4:33.72 | 183318 | 203864
Характеристики диапазона извлечения и сообщения об ошибках
Выбранный диапазон
Имя файла D:\Charles Glenn - The Bass King.wav
Пиковый уровень 100.0 %
Качество диапазона 100.0 %
CRC теста 1C1B3ADF
CRC копии 1C1B3ADF
Копирование... OK
Ошибок не произошло
AccurateRip: сводка
Трек 1 нет в базе данных
Трек 2 нет в базе данных
Трек 3 нет в базе данных
Трек 4 нет в базе данных
Трек 5 нет в базе данных
Трек 6 нет в базе данных
Трек 7 нет в базе данных
Трек 8 нет в базе данных
Трек 9 нет в базе данных
Трек 10 нет в базе данных
Ни одного трека нет в базе AccurateRip
Конец отчёта
Приватный:
Нет (DHT включён)
Размер:
299.35 Мб (313,893,959 байт) » файлов: 8
Участники:
0 раздают, 0 качают (0 участников всего)
Внешние участники:
1 раздают, 0 качают (1 участников всего) [ Обновить ]
Никого нет на раздаче - пишите личное сообщение M0p94ok
No seeders - write personal message to M0p94ok
03:16
17
Нет комментариев. Ваш будет первым!