Поиск

(Funk, Soul) Miami - Funk It Up The Best Of Miami (0946 3 11167 2 8) - 2005, FLAC (tracks+.cue)

(Funk, Soul) Miami - Funk It Up The Best Of Miami (0946 3 11167 2 8) - 2005, FLAC (tracks+.cue)
Треклист:
Miami - Funk It Up The Best Of Miami
Жанр: Funk, Soul
Год выпуска диска: 2005
Производитель диска: EMI Records
Аудио кодек: FLAC
Тип рипа: tracks+.cue
Продолжительность 76 мин 12 сек

1. Miami - Hey Y'All We're Miami (3:03)
2. Miami - Funk It Up (3:13)
3. Miami - Party Freaks (2:58)
4. Miami - Disco Weekend (7:06)
5. Miami - Give Me Your Love (5:10)
6. Miami - Come Dance With Me (4:27)
7. Miami - Kill That Roach (5:18)
8. Miami - Kung Fu Freak (3:14)
9. Miami - Same Beat Y'All (3:25)
10. Miami - Nobody But You Babe (3:17)
11. Miami - Let Me See Some Knees Pleeze (4:57)
12. Miami - I've Been Loving You Too Long (5:11)
13. Miami - Chicken Yellow (Let Me Do It To You) (2:53)
14. Miami - Freak On Down My Way (3:52)
15. Miami - Freak Around (3:28)
16. Miami - Broken Down Man (7:33)
17. Miami - Got To Get It On (3:16)
18. Miami - Lay Down Baby (3:51)
Собственноручный рип с оригинального диска от funky_cat!
 
Log EAC
Exact Audio Copy V0.99 prebeta 5 from 4. May 2009
EAC extraction logfile from 12. March 2010, 21:43
Miami / Funk It Up: The Best Of Miami
Used drive : Optiarc DVD RW AD-7170A Adapter: 0 ID: 1
Read mode : Secure
Utilize accurate stream : Yes
Defeat audio cache : Yes
Make use of C2 pointers : No
Read offset correction : 48
Overread into Lead-In and Lead-Out : No
Fill up missing offset samples with silence : Yes
Delete leading and trailing silent blocks : No
Null samples used in CRC calculations : Yes
Used interface : Native Win32 interface for Win NT & 2000
Gap handling : Appended to previous track
Used output format : User Defined Encoder
Selected bitrate : 1024 kBit/s
Quality : High
Add ID3 tag : No
Command line compressor : C:\Program Files\FLAC\flac.exe
Additional command line options : -5 -V -T "ARTIST=%a" -T "TITLE=%t" -T "ALBUM=%g" -T "DATE=%y" -T "TRACKNUMBER=%n" -T "GENRE=%m" -T "COMMENT=Ripped by andygrakoff aka yetiisyou" %s
TOC of the extracted CD
Track | Start | Length | Start sector | End sector
---------------------------------------------------------
1 | 0:00.00 | 3:03.50 | 0 | 13774
2 | 3:03.50 | 3:13.60 | 13775 | 28309
3 | 6:17.35 | 2:58.12 | 28310 | 41671
4 | 9:15.47 | 7:06.35 | 41672 | 73656
5 | 16:22.07 | 5:10.64 | 73657 | 96970
6 | 21:32.71 | 4:27.59 | 96971 | 117054
7 | 26:00.55 | 5:18.70 | 117055 | 140974
8 | 31:19.50 | 3:14.50 | 140975 | 155574
9 | 34:34.25 | 3:25.11 | 155575 | 170960
10 | 37:59.36 | 3:17.35 | 170961 | 185770
11 | 41:16.71 | 4:57.42 | 185771 | 208087
12 | 46:14.38 | 5:11.29 | 208088 | 231441
13 | 51:25.67 | 2:53.04 | 231442 | 244420
14 | 54:18.71 | 3:52.73 | 244421 | 261893
15 | 58:11.69 | 3:28.67 | 261894 | 277560
16 | 61:40.61 | 7:33.74 | 277561 | 311609
17 | 69:14.60 | 3:16.32 | 311610 | 326341
18 | 72:31.17 | 3:51.34 | 326342 | 343700
Track 1
Filename E:\!Rips\FUNK @ SOUL\Miami - Funk It Up The Best Of Miami (0946 3 11167 2 8)\01 – Hey Y'All We're Miami.wav
Pre-gap length 0:00:02.00
Peak level 87.6 %
Track quality 100.0 %
Test CRC 17948D31
Copy CRC 17948D31
Accurately ripped (confidence 1) [02201E51]
Copy OK
Track 2
Filename E:\!Rips\FUNK @ SOUL\Miami - Funk It Up The Best Of Miami (0946 3 11167 2 8)\02 – Funk It Up.wav
Pre-gap length 0:00:01.69
Peak level 87.2 %
Track quality 100.0 %
Test CRC F3DA8B0D
Copy CRC F3DA8B0D
Accurately ripped (confidence 1) [342FFEA1]
Copy OK
Track 3
Filename E:\!Rips\FUNK @ SOUL\Miami - Funk It Up The Best Of Miami (0946 3 11167 2 8)\03 – Party Freaks.wav
Pre-gap length 0:00:01.80
Peak level 87.9 %
Track quality 100.0 %
Test CRC CED1E825
Copy CRC CED1E825
Accurately ripped (confidence 1) [949A5EC3]
Copy OK
Track 4
Filename E:\!Rips\FUNK @ SOUL\Miami - Funk It Up The Best Of Miami (0946 3 11167 2 8)\04 – Disco Weekend.wav
Pre-gap length 0:00:01.53
Peak level 97.9 %
Track quality 100.0 %
Test CRC A9A7CFA3
Copy CRC A9A7CFA3
Accurately ripped (confidence 1) [F98395CF]
Copy OK
Track 5
Filename E:\!Rips\FUNK @ SOUL\Miami - Funk It Up The Best Of Miami (0946 3 11167 2 8)\05 – Give Me Your Love.wav
Pre-gap length 0:00:01.04
Peak level 100.0 %
Track quality 100.0 %
Test CRC 6D414C5F
Copy CRC 6D414C5F
Accurately ripped (confidence 1) [C2AE82D5]
Copy OK
Track 6
Filename E:\!Rips\FUNK @ SOUL\Miami - Funk It Up The Best Of Miami (0946 3 11167 2 8)\06 – Come Dance With Me.wav
Pre-gap length 0:00:02.34
Peak level 97.9 %
Track quality 100.0 %
Test CRC 9D3D1315
Copy CRC 9D3D1315
Accurately ripped (confidence 1) [0AD47EB8]
Copy OK
Track 7
Filename E:\!Rips\FUNK @ SOUL\Miami - Funk It Up The Best Of Miami (0946 3 11167 2 8)\07 – Kill That Roach.wav
Peak level 97.9 %
Track quality 100.0 %
Test CRC 4126E59B
Copy CRC 4126E59B
Accurately ripped (confidence 1) [BCCD4C0C]
Copy OK
Track 8
Filename E:\!Rips\FUNK @ SOUL\Miami - Funk It Up The Best Of Miami (0946 3 11167 2 8)\08 – Kung Fu Freak.wav
Peak level 85.1 %
Track quality 100.0 %
Test CRC 4FFE45F5
Copy CRC 4FFE45F5
Accurately ripped (confidence 1) [DFCDBEC9]
Copy OK
Track 9
Filename E:\!Rips\FUNK @ SOUL\Miami - Funk It Up The Best Of Miami (0946 3 11167 2 8)\09 – Same Beat Y'All.wav
Pre-gap length 0:00:02.69
Peak level 87.0 %
Track quality 100.0 %
Test CRC 43E4D0CC
Copy CRC 43E4D0CC
Accurately ripped (confidence 1) [8F0FB9D9]
Copy OK
Track 10
Filename E:\!Rips\FUNK @ SOUL\Miami - Funk It Up The Best Of Miami (0946 3 11167 2 8)\10 – Nobody But You Babe.wav
Pre-gap length 0:00:03.44
Peak level 97.9 %
Track quality 100.0 %
Test CRC CF0A7067
Copy CRC CF0A7067
Accurately ripped (confidence 1) [9EAE920A]
Copy OK
Track 11
Filename E:\!Rips\FUNK @ SOUL\Miami - Funk It Up The Best Of Miami (0946 3 11167 2 8)\11 – Let Me See Some Knees Pleeze.wav
Pre-gap length 0:00:00.84
Peak level 97.9 %
Track quality 100.0 %
Test CRC 481BA854
Copy CRC 481BA854
Accurately ripped (confidence 1) [C1709188]
Copy OK
Track 12
Filename E:\!Rips\FUNK @ SOUL\Miami - Funk It Up The Best Of Miami (0946 3 11167 2 8)\12 – I've Been Loving You Too Long.wav
Pre-gap length 0:00:01.64
Peak level 97.9 %
Track quality 100.0 %
Test CRC 27E929F7
Copy CRC 27E929F7
Accurately ripped (confidence 1) [431D4AD6]
Copy OK
Track 13
Filename E:\!Rips\FUNK @ SOUL\Miami - Funk It Up The Best Of Miami (0946 3 11167 2 8)\13 – Chicken Yellow (Let Me Do It To You).wav
Pre-gap length 0:00:01.08
Peak level 83.0 %
Track quality 100.0 %
Test CRC 96139D8A
Copy CRC 96139D8A
Accurately ripped (confidence 1) [42B1843B]
Copy OK
Track 14
Filename E:\!Rips\FUNK @ SOUL\Miami - Funk It Up The Best Of Miami (0946 3 11167 2 8)\14 – Freak On Down My Way.wav
Pre-gap length 0:00:01.84
Peak level 97.9 %
Track quality 100.0 %
Test CRC E663582D
Copy CRC E663582D
Accurately ripped (confidence 1) [A7A8AB46]
Copy OK
Track 15
Filename E:\!Rips\FUNK @ SOUL\Miami - Funk It Up The Best Of Miami (0946 3 11167 2 8)\15 – Freak Around.wav
Pre-gap length 0:00:01.34
Peak level 97.9 %
Track quality 99.9 %
Test CRC D518EB40
Copy CRC D518EB40
Accurately ripped (confidence 1) [C3B6CE39]
Copy OK
Track 16
Filename E:\!Rips\FUNK @ SOUL\Miami - Funk It Up The Best Of Miami (0946 3 11167 2 8)\16 – Broken Down Man.wav
Pre-gap length 0:00:01.70
Peak level 97.9 %
Track quality 100.0 %
Test CRC 9778FB34
Copy CRC 9778FB34
Accurately ripped (confidence 1) [371F4546]
Copy OK
Track 17
Filename E:\!Rips\FUNK @ SOUL\Miami - Funk It Up The Best Of Miami (0946 3 11167 2 8)\17 – Got To Get It On.wav
Pre-gap length 0:00:00.89
Peak level 97.9 %
Track quality 99.9 %
Test CRC 14805C2D
Copy CRC 14805C2D
Accurately ripped (confidence 1) [851ECE1D]
Copy OK
Track 18
Filename E:\!Rips\FUNK @ SOUL\Miami - Funk It Up The Best Of Miami (0946 3 11167 2 8)\18 – Lay Down Baby.wav
Pre-gap length 0:00:01.97
Peak level 86.7 %
Track quality 99.9 %
Test CRC 4F4E3C4D
Copy CRC 4F4E3C4D
Accurately ripped (confidence 1) [58F31ECD]
Copy OK
All tracks accurately ripped
No errors occurred
End of status report
 
CUE
REM GENRE "Funk / Soul "
REM DATE 2005
REM DISCID 1C11E612
REM COMMENT "ExactAudioCopy v0.99pb5"
PERFORMER "Miami"
TITLE "Funk It Up: The Best Of Miami"
FILE "01 – Hey Y'All We're Miami.wav" WAVE
TRACK 01 AUDIO
TITLE "Hey Y'All We're Miami"
PERFORMER "Miami"
INDEX 01 00:00:00
TRACK 02 AUDIO
TITLE "Funk It Up"
PERFORMER "Miami"
INDEX 00 03:01:73
FILE "02 – Funk It Up.wav" WAVE
INDEX 01 00:00:00
TRACK 03 AUDIO
TITLE "Party Freaks"
PERFORMER "Miami"
INDEX 00 03:12:00
FILE "03 – Party Freaks.wav" WAVE
INDEX 01 00:00:00
TRACK 04 AUDIO
TITLE "Disco Weekend"
PERFORMER "Miami"
INDEX 00 02:56:47
FILE "04 – Disco Weekend.wav" WAVE
INDEX 01 00:00:00
TRACK 05 AUDIO
TITLE "Give Me Your Love"
PERFORMER "Miami"
INDEX 00 07:05:32
FILE "05 – Give Me Your Love.wav" WAVE
INDEX 01 00:00:00
TRACK 06 AUDIO
TITLE "Come Dance With Me"
PERFORMER "Miami"
INDEX 00 05:08:38
FILE "06 – Come Dance With Me.wav" WAVE
INDEX 01 00:00:00
FILE "07 – Kill That Roach.wav" WAVE
TRACK 07 AUDIO
TITLE "Kill That Roach"
PERFORMER "Miami"
INDEX 01 00:00:00
FILE "08 – Kung Fu Freak.wav" WAVE
TRACK 08 AUDIO
TITLE "Kung Fu Freak"
PERFORMER "Miami"
INDEX 01 00:00:00
TRACK 09 AUDIO
TITLE "Same Beat Y'All"
PERFORMER "Miami"
INDEX 00 03:11:73
FILE "09 – Same Beat Y'All.wav" WAVE
INDEX 01 00:00:00
TRACK 10 AUDIO
TITLE "Nobody But You Babe"
PERFORMER "Miami"
INDEX 00 03:21:53
FILE "10 – Nobody But You Babe.wav" WAVE
INDEX 01 00:00:00
TRACK 11 AUDIO
TITLE "Let Me See Some Knees Pleeze"
PERFORMER "Miami"
INDEX 00 03:16:47
FILE "11 – Let Me See Some Knees Pleeze.wav" WAVE
INDEX 01 00:00:00
TRACK 12 AUDIO
TITLE "I've Been Loving You Too Long"
PERFORMER "Miami"
INDEX 00 04:55:69
FILE "12 – I've Been Loving You Too Long.wav" WAVE
INDEX 01 00:00:00
TRACK 13 AUDIO
TITLE "Chicken Yellow (Let Me Do It To You)"
PERFORMER "Miami"
INDEX 00 05:10:23
FILE "13 – Chicken Yellow (Let Me Do It To You).wav" WAVE
INDEX 01 00:00:00
TRACK 14 AUDIO
TITLE "Freak On Down My Way"
PERFORMER "Miami"
INDEX 00 02:51:16
FILE "14 – Freak On Down My Way.wav" WAVE
INDEX 01 00:00:00
TRACK 15 AUDIO
TITLE "Freak Around"
PERFORMER "Miami"
INDEX 00 03:51:47
FILE "15 – Freak Around.wav" WAVE
INDEX 01 00:00:00
TRACK 16 AUDIO
TITLE "Broken Down Man"
PERFORMER "Miami"
INDEX 00 03:27:14
FILE "16 – Broken Down Man.wav" WAVE
INDEX 01 00:00:00
TRACK 17 AUDIO
TITLE "Got To Get It On"
PERFORMER "Miami"
INDEX 00 07:33:07
FILE "17 – Got To Get It On.wav" WAVE
INDEX 01 00:00:00
TRACK 18 AUDIO
TITLE "Lay Down Baby"
PERFORMER "Miami"
INDEX 00 03:14:34
FILE "18 – Lay Down Baby.wav" WAVE
INDEX 01 00:00:00
Приватный:
Нет (DHT включён)
Размер:
532.91 Мб (558,792,092 байт) » файлов: 30
Участники:
0 раздают, 0 качают (0 участников всего)
Внешние участники:
1 раздают, 0 качают (1 участников всего) [ Обновить ]
Никого нет на раздаче - пишите ЛС M0p94ok
No seeders - write PM to M0p94ok
03:17
14
Нет комментариев. Ваш будет первым!