Поиск

(Soul-Jazz, Smooth Jazz, Soul) Minnie Riperton - Come To My Garden (CMRCD 550) (2002 rem) - 1970, FLAC (tracks+.cue), lossless

(Soul-Jazz, Smooth Jazz, Soul) Minnie Riperton - Come To My Garden (CMRCD 550) (2002 rem) - 1970, FLAC (tracks+.cue), lossless
Треклист:
Minnie Riperton - Come To My Garden
Жанр: Soul-Jazz, Smooth Jazz, Soul
Год выпуска диска: 1970 (2002 remaster)
Производитель диска: Castle Music
Аудио кодек: FLAC
Тип рипа: tracks+.cue
Битрейт аудио: lossless
Продолжительность: 00:37:33

1. Minnie Riperton - Les Fleur (3:18)
2. Minnie Riperton - Completeness (3:34)
3. Minnie Riperton - Come To My Garden (3:21)
4. Minnie Riperton - Memory Band (4:09)
5. Minnie Riperton - Rainy Day In Centerville (5:24)
6. Minnie Riperton - Close Your Eyes And Remeber (3:43)
7. Minnie Riperton - Oh, By The Way (3:05)
8. Minnie Riperton - Expecting (3:56)
9. Minnie Riperton - Only When Iґm Dreaming (3:29)
10. Minnie Riperton - Whenever, Wherever (3:34)
Собственноручный рип с оригинального диска от funky_cat!
 
Log EAC
Exact Audio Copy V0.99 prebeta 5 from 4. May 2009
EAC extraction logfile from 13. March 2010, 3:27
Minnie Riperton / Come To My Garden
Used drive : ASUS DRW-1608P2 Adapter: 0 ID: 0
Read mode : Secure
Utilize accurate stream : Yes
Defeat audio cache : Yes
Make use of C2 pointers : No
Read offset correction : 48
Overread into Lead-In and Lead-Out : No
Fill up missing offset samples with silence : Yes
Delete leading and trailing silent blocks : No
Null samples used in CRC calculations : Yes
Used interface : Native Win32 interface for Win NT & 2000
Gap handling : Appended to previous track
Used output format : User Defined Encoder
Selected bitrate : 1024 kBit/s
Quality : High
Add ID3 tag : No
Command line compressor : C:\Program Files\FLAC\flac.exe
Additional command line options : -5 -V -T "ARTIST=%a" -T "TITLE=%t" -T "ALBUM=%g" -T "DATE=%y" -T "TRACKNUMBER=%n" -T "GENRE=%m" -T "COMMENT=Ripped by andygrakoff aka yetiisyou" %s
TOC of the extracted CD
Track | Start | Length | Start sector | End sector
---------------------------------------------------------
1 | 0:00.00 | 3:18.60 | 0 | 14909
2 | 3:18.60 | 3:34.02 | 14910 | 30961
3 | 6:52.62 | 3:21.15 | 30962 | 46051
4 | 10:14.02 | 4:09.40 | 46052 | 64766
5 | 14:23.42 | 5:24.69 | 64767 | 89135
6 | 19:48.36 | 3:43.66 | 89136 | 105926
7 | 23:32.27 | 3:05.65 | 105927 | 119866
8 | 26:38.17 | 3:56.00 | 119867 | 137566
9 | 30:34.17 | 3:29.18 | 137567 | 153259
10 | 34:03.35 | 3:34.51 | 153260 | 169360
Track 1
Filename E:\!Rips\FUNK @ SOUL\Minnie Riperton - Come To My Garden (CMRCD 550)\01 – Les Fleur.wav
Pre-gap length 0:00:02.00
Peak level 98.8 %
Track quality 100.0 %
Test CRC 1F6C3F82
Copy CRC 1F6C3F82
Accurately ripped (confidence 1) [1C635B02]
Copy OK
Track 2
Filename E:\!Rips\FUNK @ SOUL\Minnie Riperton - Come To My Garden (CMRCD 550)\02 – Completeness.wav
Pre-gap length 0:00:01.00
Peak level 98.8 %
Track quality 100.0 %
Test CRC 56CF88FE
Copy CRC 56CF88FE
Accurately ripped (confidence 1) [2A03F4AF]
Copy OK
Track 3
Filename E:\!Rips\FUNK @ SOUL\Minnie Riperton - Come To My Garden (CMRCD 550)\03 – Come To My Garden.wav
Pre-gap length 0:00:01.00
Peak level 98.8 %
Track quality 100.0 %
Test CRC 07B790E0
Copy CRC 07B790E0
Accurately ripped (confidence 1) [1734CC69]
Copy OK
Track 4
Filename E:\!Rips\FUNK @ SOUL\Minnie Riperton - Come To My Garden (CMRCD 550)\04 – Memory Band.wav
Pre-gap length 0:00:00.24
Peak level 98.8 %
Track quality 100.0 %
Test CRC 5FE64A40
Copy CRC 5FE64A40
Accurately ripped (confidence 1) [3B657293]
Copy OK
Track 5
Filename E:\!Rips\FUNK @ SOUL\Minnie Riperton - Come To My Garden (CMRCD 550)\05 – Rainy Day In Centerville.wav
Pre-gap length 0:00:00.26
Peak level 98.8 %
Track quality 100.0 %
Test CRC 6F6053A2
Copy CRC 6F6053A2
Accurately ripped (confidence 1) [ED0A25AE]
Copy OK
Track 6
Filename E:\!Rips\FUNK @ SOUL\Minnie Riperton - Come To My Garden (CMRCD 550)\06 – Close Your Eyes And Remeber.wav
Peak level 98.8 %
Track quality 100.0 %
Test CRC 243651D2
Copy CRC 243651D2
Accurately ripped (confidence 1) [DA1C5CDE]
Copy OK
Track 7
Filename E:\!Rips\FUNK @ SOUL\Minnie Riperton - Come To My Garden (CMRCD 550)\07 – Oh, By The Way.wav
Pre-gap length 0:00:01.16
Peak level 98.8 %
Track quality 100.0 %
Test CRC E7DA1B41
Copy CRC E7DA1B41
Accurately ripped (confidence 1) [81E74894]
Copy OK
Track 8
Filename E:\!Rips\FUNK @ SOUL\Minnie Riperton - Come To My Garden (CMRCD 550)\08 – Expecting.wav
Pre-gap length 0:00:01.82
Peak level 98.8 %
Track quality 100.0 %
Test CRC 666510AE
Copy CRC 666510AE
Accurately ripped (confidence 1) [1B5FFBDE]
Copy OK
Track 9
Filename E:\!Rips\FUNK @ SOUL\Minnie Riperton - Come To My Garden (CMRCD 550)\09 – Only When Iґm Dreaming.wav
Pre-gap length 0:00:00.22
Peak level 98.8 %
Track quality 100.0 %
Test CRC 939C37A9
Copy CRC 939C37A9
Accurately ripped (confidence 1) [48DED6F4]
Copy OK
Track 10
Filename E:\!Rips\FUNK @ SOUL\Minnie Riperton - Come To My Garden (CMRCD 550)\10 – Whenever, Wherever.wav
Pre-gap length 0:00:01.45
Peak level 98.8 %
Track quality 100.0 %
Test CRC 62F225D1
Copy CRC 62F225D1
Accurately ripped (confidence 1) [A10B887E]
Copy OK
All tracks accurately ripped
No errors occurred
End of status report
 
CUE
REM DATE 1970
REM DISCID 6608D20A
REM COMMENT "ExactAudioCopy v0.99pb5"
PERFORMER "Minnie Riperton"
TITLE "Come To My Garden"
FILE "01 – Les Fleur.wav" WAVE
TRACK 01 AUDIO
TITLE "Les Fleur"
PERFORMER "Minnie Riperton"
INDEX 01 00:00:00
TRACK 02 AUDIO
TITLE "Completeness"
PERFORMER "Minnie Riperton"
INDEX 00 03:17:60
FILE "02 – Completeness.wav" WAVE
INDEX 01 00:00:00
TRACK 03 AUDIO
TITLE "Come To My Garden"
PERFORMER "Minnie Riperton"
INDEX 00 03:33:02
FILE "03 – Come To My Garden.wav" WAVE
INDEX 01 00:00:00
TRACK 04 AUDIO
TITLE "Memory Band"
PERFORMER "Minnie Riperton"
INDEX 00 03:20:72
FILE "04 – Memory Band.wav" WAVE
INDEX 01 00:00:00
TRACK 05 AUDIO
TITLE "Rainy Day In Centerville"
PERFORMER "Minnie Riperton"
INDEX 00 04:09:20
FILE "05 – Rainy Day In Centerville.wav" WAVE
INDEX 01 00:00:00
FILE "06 – Close Your Eyes And Remeber.wav" WAVE
TRACK 06 AUDIO
TITLE "Close Your Eyes And Remeber "
PERFORMER "Minnie Riperton"
INDEX 01 00:00:00
TRACK 07 AUDIO
TITLE "Oh, By The Way"
PERFORMER "Minnie Riperton"
INDEX 00 03:42:54
FILE "07 – Oh, By The Way.wav" WAVE
INDEX 01 00:00:00
TRACK 08 AUDIO
TITLE "Expecting"
PERFORMER "Minnie Riperton"
INDEX 00 03:04:03
FILE "08 – Expecting.wav" WAVE
INDEX 01 00:00:00
TRACK 09 AUDIO
TITLE "Only When Iґm Dreaming"
PERFORMER "Minnie Riperton"
INDEX 00 03:55:58
FILE "09 – Only When Iґm Dreaming.wav" WAVE
INDEX 01 00:00:00
TRACK 10 AUDIO
TITLE "Whenever, Wherever"
PERFORMER "Minnie Riperton"
INDEX 00 03:27:59
FILE "10 – Whenever, Wherever.wav" WAVE
INDEX 01 00:00:00
Приватный:
Нет (DHT включён)
Размер:
230.25 Мб (241,430,127 байт) » файлов: 18
Участники:
0 раздают, 0 качают (0 участников всего)
Внешние участники:
5 раздают, 2 качают (7 участников всего) [ Обновить ]
Нет сидеров - пишите личное сообщение M0p94ok. Не нравятся торренты? Участники группы Pro-jazz Club могут заказать прямую ссылку на скачивание из облака.
No seeders - write a personal message to M0p94ok. Don't like torrents? Members of Pro-jazz Club group can order a direct download link from the cloud.
03:18
34
Нет комментариев. Ваш будет первым!