Поиск

(Funk, Soul) Noel Pointer - Direct Hit (1982) (072435787792) (remaster 2004) - 1982, FLAC (tracks+.cue), lossless

(Funk, Soul) Noel Pointer - Direct Hit (1982) (072435787792) (remaster 2004) - 1982, FLAC (tracks+.cue), lossless
Треклист:
Noel Pointer - Direct Hit
Жанр: Funk, Soul
Год выпуска диска: 1982 (remaster 2004)
Производитель диска: EMI Records
Аудио кодек: FLAC
Тип рипа: tracks+.cue
Битрейт аудио: lossless
Продолжительность: 00:37:25
1. Noel Pointer - Direct Hit (5:02)
2. Noel Pointer - We Took The Long Way Home (3:55)
3. Noel Pointer - Play The Part (5:34)
4. Noel Pointer - Don't Do Ut Agaun (4:58)
5. Noel Pointer - Life Time Of Love (4:25)
6. Noel Pointer - Catch Me (4:34)
7. Noel Pointer - When Love Walks In The Door (4:34)
8. Noel Pointer - Living Through The Ghost (4:23)
Собственноручный рип с оригинального диска от funky_cat!
 
Log EAC
Exact Audio Copy V0.99 prebeta 5 from 4. May 2009
EAC extraction logfile from 7. March 2010, 22:17
Noel Pointer / Direct Hit
Used drive : ASUS DRW-1608P2 Adapter: 0 ID: 0
Read mode : Secure
Utilize accurate stream : Yes
Defeat audio cache : Yes
Make use of C2 pointers : No
Read offset correction : 48
Overread into Lead-In and Lead-Out : No
Fill up missing offset samples with silence : Yes
Delete leading and trailing silent blocks : No
Null samples used in CRC calculations : Yes
Used interface : Native Win32 interface for Win NT & 2000
Gap handling : Appended to previous track
Used output format : User Defined Encoder
Selected bitrate : 320 kBit/s
Quality : High
Add ID3 tag : No
Command line compressor : C:\Program Files\FLAC\flac.exe
Additional command line options : -5 -V -T "ARTIST=%a" -T "TITLE=%t" -T "ALBUM=%g" -T "DATE=%y" -T "TRACKNUMBER=%n" -T "GENRE=%m" -T "COMMENT=Ripped By andygrakoff aka yetiisyou" %s
TOC of the extracted CD
Track | Start | Length | Start sector | End sector
---------------------------------------------------------
1 | 0:00.36 | 5:02.29 | 36 | 22714
2 | 5:02.65 | 3:55.58 | 22715 | 40397
3 | 8:58.48 | 5:34.03 | 40398 | 65450
4 | 14:32.51 | 4:58.61 | 65451 | 87861
5 | 19:31.37 | 4:25.43 | 87862 | 107779
6 | 23:57.05 | 4:34.55 | 107780 | 128384
7 | 28:31.60 | 4:34.36 | 128385 | 148970
8 | 33:06.21 | 4:23.18 | 148971 | 168713
9 | 40:01.39 | 33:56.36 | 180114 | 332849
Track 1
Filename E:\!Rips\FUNK @ SOUL\Noel Pointer - Direct Hit (1982) (072435787792)\01 – Direct Hit.wav
Pre-gap length 0:00:02.48
Peak level 100.0 %
Track quality 100.0 %
Test CRC EE2E72B3
Copy CRC EE2E72B3
Track not present in AccurateRip database
Copy OK
Track 2
Filename E:\!Rips\FUNK @ SOUL\Noel Pointer - Direct Hit (1982) (072435787792)\02 – We Took The Long Way Home.wav
Peak level 100.0 %
Track quality 99.9 %
Test CRC 6B831066
Copy CRC 6B831066
Track not present in AccurateRip database
Copy OK
Track 3
Filename E:\!Rips\FUNK @ SOUL\Noel Pointer - Direct Hit (1982) (072435787792)\03 – Play The Part.wav
Peak level 100.0 %
Track quality 99.9 %
Test CRC D5985EBA
Copy CRC D5985EBA
Track not present in AccurateRip database
Copy OK
Track 4
Filename E:\!Rips\FUNK @ SOUL\Noel Pointer - Direct Hit (1982) (072435787792)\04 – Don't Do Ut Agaun.wav
Peak level 100.0 %
Track quality 99.9 %
Test CRC C3A5EB3D
Copy CRC C3A5EB3D
Track not present in AccurateRip database
Copy OK
Track 5
Filename E:\!Rips\FUNK @ SOUL\Noel Pointer - Direct Hit (1982) (072435787792)\05 – Life Time Of Love.wav
Peak level 100.0 %
Track quality 100.0 %
Test CRC B8A32BFD
Copy CRC B8A32BFD
Track not present in AccurateRip database
Copy OK
Track 6
Filename E:\!Rips\FUNK @ SOUL\Noel Pointer - Direct Hit (1982) (072435787792)\06 – Catch Me.wav
Peak level 100.0 %
Track quality 100.0 %
Test CRC 015B18F5
Copy CRC 015B18F5
Track not present in AccurateRip database
Copy OK
Track 7
Filename E:\!Rips\FUNK @ SOUL\Noel Pointer - Direct Hit (1982) (072435787792)\07 – When Love Walks In The Door.wav
Peak level 100.0 %
Track quality 100.0 %
Test CRC 3D403B5C
Copy CRC 3D403B5C
Track not present in AccurateRip database
Copy OK
Track 8
Filename E:\!Rips\FUNK @ SOUL\Noel Pointer - Direct Hit (1982) (072435787792)\08 – Living Through The Ghost.wav
Peak level 100.0 %
Track quality 100.0 %
Test CRC 9A6B8FB6
Copy CRC 9A6B8FB6
Track not present in AccurateRip database
Copy OK
None of the tracks are present in the AccurateRip database
No errors occurred
End of status report
 
CUE
REM DATE 1982
REM DISCID 71115609
REM COMMENT "ExactAudioCopy v0.99pb5"
PERFORMER "Noel Pointer"
TITLE "Direct Hit"
FILE "01 – Direct Hit.wav" WAVE
TRACK 01 AUDIO
TITLE "Direct Hit"
PERFORMER "Noel Pointer"
PREGAP 00:00:36
INDEX 01 00:00:00
FILE "02 – We Took The Long Way Home.wav" WAVE
TRACK 02 AUDIO
TITLE "We Took The Long Way Home"
PERFORMER "Noel Pointer"
INDEX 01 00:00:00
FILE "03 – Play The Part.wav" WAVE
TRACK 03 AUDIO
TITLE "Play The Part"
PERFORMER "Noel Pointer"
INDEX 01 00:00:00
FILE "04 – Don't Do Ut Agaun.wav" WAVE
TRACK 04 AUDIO
TITLE "Don't Do Ut Agaun"
PERFORMER "Noel Pointer"
INDEX 01 00:00:00
FILE "05 – Life Time Of Love.wav" WAVE
TRACK 05 AUDIO
TITLE "Life Time Of Love"
PERFORMER "Noel Pointer"
INDEX 01 00:00:00
FILE "06 – Catch Me.wav" WAVE
TRACK 06 AUDIO
TITLE "Catch Me"
PERFORMER "Noel Pointer"
INDEX 01 00:00:00
FILE "07 – When Love Walks In The Door.wav" WAVE
TRACK 07 AUDIO
TITLE "When Love Walks In The Door"
PERFORMER "Noel Pointer"
INDEX 01 00:00:00
FILE "08 – Living Through The Ghost.wav" WAVE
TRACK 08 AUDIO
TITLE "Living Through The Ghost"
PERFORMER "Noel Pointer"
INDEX 01 00:00:00
TRACK 09 MODEx/2xxx
TITLE "Track09"
PERFORMER "Noel Pointer"
INDEX 00 04:23:18
Приватный:
Нет (DHT включён)
Размер:
277.70 Мб (291,185,824 байт) » файлов: 20
Участники:
0 раздают, 0 качают (0 участников всего)
Внешние участники:
5 раздают, 1 качают (6 участников всего) [ Обновить ]
Нет сидеров - пишите личное сообщение M0p94ok. Не нравятся торренты? Участники группы Pro-jazz Club могут заказать прямую ссылку на скачивание из облака.
No seeders - write a personal message to M0p94ok. Don't like torrents? Members of Pro-jazz Club group can order a direct download link from the cloud.
03:18
24
Нет комментариев. Ваш будет первым!