Поиск

(Funk, Soul) Norman Connors - Saturday Night Special\You are my starship (NEX CD 186) (1992 remaster) - 1975, FLAC (tracks+.cue), lossless

(Funk, Soul) Norman Connors - Saturday Night Special\You are my starship (NEX CD 186) (1992 remaster) - 1975, FLAC (tracks+.cue), lossless
Треклист:
Norman Connors - Saturday Night Special
Жанр: Funk, Soul
Год выпуска диска: 1975 (1992 remaster)
Производитель диска: Sequel Records
Аудио кодек: FLAC
Тип рипа: tracks+.cue
Битрейт аудио: lossless
Продолжительность: 00:71:07
1. Norman Connors - Saturday night special (4:30)
2. Norman Connors - Dindi (6:57)
3. Norman Connors - Maiden voyage (6:51)
4. Norman Connors - Valentine love (3:50)
5. Norman Connors - Akia (3:49)
6. Norman Connors - Skin diver (6:53)
7. Norman Connors - Kwasi (3:42)
8. Norman Connors - We both need each other (4:03)
9. Norman Connors - Betcha by golly wow (6:22)
10. Norman Connors - Bubbles (6:08)
11. Norman Connors - You are my starship (4:32)
12. Norman Connors - Just imagination (3:56)
13. Norman Connors - So much love (2:44)
14. Norman Connors - The Creator has a master plan (6:50)
Собственноручный рип с оригинального диска от funky_cat!
 
Log EAC
Exact Audio Copy V0.99 prebeta 5 from 4. May 2009
EAC extraction logfile from 7. March 2010, 15:33
Norman Connors / Saturday night special (1-7) / You are my starship (8-14)
Used drive : ASUS DRW-1608P2 Adapter: 0 ID: 0
Read mode : Secure
Utilize accurate stream : Yes
Defeat audio cache : Yes
Make use of C2 pointers : No
Read offset correction : 48
Overread into Lead-In and Lead-Out : No
Fill up missing offset samples with silence : Yes
Delete leading and trailing silent blocks : No
Null samples used in CRC calculations : Yes
Used interface : Native Win32 interface for Win NT & 2000
Gap handling : Appended to previous track
Used output format : User Defined Encoder
Selected bitrate : 320 kBit/s
Quality : High
Add ID3 tag : No
Command line compressor : C:\Program Files\FLAC\flac.exe
Additional command line options : -5 -V -T "ARTIST=%a" -T "TITLE=%t" -T "ALBUM=%g" -T "DATE=%y" -T "TRACKNUMBER=%n" -T "GENRE=%m" -T "COMMENT=Ripped By andygrakoff aka yetiisyou" %s
TOC of the extracted CD
Track | Start | Length | Start sector | End sector
---------------------------------------------------------
1 | 0:00.00 | 4:30.57 | 0 | 20306
2 | 4:30.57 | 6:57.70 | 20307 | 51651
3 | 11:28.52 | 6:51.74 | 51652 | 82550
4 | 18:20.51 | 3:50.67 | 82551 | 99867
5 | 22:11.43 | 3:49.45 | 99868 | 117087
6 | 26:01.13 | 6:53.45 | 117088 | 148107
7 | 32:54.58 | 3:42.43 | 148108 | 164800
8 | 36:37.26 | 4:03.20 | 164801 | 183045
9 | 40:40.46 | 6:22.10 | 183046 | 211705
10 | 47:02.56 | 6:08.50 | 211706 | 239355
11 | 53:11.31 | 4:32.25 | 239356 | 259780
12 | 57:43.56 | 3:56.00 | 259781 | 277480
13 | 61:39.56 | 2:44.13 | 277481 | 289793
14 | 64:23.69 | 6:50.63 | 289794 | 320606
Track 1
Filename E:\!Rips\FUNK @ SOUL\Norman Connors - Saturday Night Special 1975 (NEX CD 186)\01 – Saturday night special.wav
Pre-gap length 0:00:02.00
Peak level 100.0 %
Track quality 100.0 %
Test CRC 40D544ED
Copy CRC 40D544ED
Track not present in AccurateRip database
Copy OK
Track 2
Filename E:\!Rips\FUNK @ SOUL\Norman Connors - Saturday Night Special 1975 (NEX CD 186)\02 – Dindi.wav
Peak level 100.0 %
Track quality 100.0 %
Test CRC DEF833B0
Copy CRC DEF833B0
Track not present in AccurateRip database
Copy OK
Track 3
Filename E:\!Rips\FUNK @ SOUL\Norman Connors - Saturday Night Special 1975 (NEX CD 186)\03 – Maiden voyage.wav
Peak level 95.4 %
Track quality 100.0 %
Test CRC 55C6B9E2
Copy CRC 55C6B9E2
Track not present in AccurateRip database
Copy OK
Track 4
Filename E:\!Rips\FUNK @ SOUL\Norman Connors - Saturday Night Special 1975 (NEX CD 186)\04 – Valentine love.wav
Peak level 97.1 %
Track quality 100.0 %
Test CRC 08C93114
Copy CRC 08C93114
Track not present in AccurateRip database
Copy OK
Track 5
Filename E:\!Rips\FUNK @ SOUL\Norman Connors - Saturday Night Special 1975 (NEX CD 186)\05 – Akia.wav
Peak level 97.7 %
Track quality 100.0 %
Test CRC 699A0C4E
Copy CRC 699A0C4E
Track not present in AccurateRip database
Copy OK
Track 6
Filename E:\!Rips\FUNK @ SOUL\Norman Connors - Saturday Night Special 1975 (NEX CD 186)\06 – Skin diver.wav
Peak level 89.7 %
Track quality 100.0 %
Test CRC AEAD4B82
Copy CRC AEAD4B82
Track not present in AccurateRip database
Copy OK
Track 7
Filename E:\!Rips\FUNK @ SOUL\Norman Connors - Saturday Night Special 1975 (NEX CD 186)\07 – Kwasi.wav
Peak level 100.0 %
Track quality 100.0 %
Test CRC DBF522E9
Copy CRC DBF522E9
Track not present in AccurateRip database
Copy OK
Track 8
Filename E:\!Rips\FUNK @ SOUL\Norman Connors - Saturday Night Special 1975 (NEX CD 186)\08 – We both need each other.wav
Peak level 99.8 %
Track quality 100.0 %
Test CRC 48FEB9D2
Copy CRC 48FEB9D2
Track not present in AccurateRip database
Copy OK
Track 9
Filename E:\!Rips\FUNK @ SOUL\Norman Connors - Saturday Night Special 1975 (NEX CD 186)\09 – Betcha by golly wow.wav
Peak level 98.8 %
Track quality 100.0 %
Test CRC 503C1DB2
Copy CRC 503C1DB2
Track not present in AccurateRip database
Copy OK
Track 10
Filename E:\!Rips\FUNK @ SOUL\Norman Connors - Saturday Night Special 1975 (NEX CD 186)\10 – Bubbles.wav
Peak level 98.3 %
Track quality 100.0 %
Test CRC 2E1EE7BF
Copy CRC 2E1EE7BF
Track not present in AccurateRip database
Copy OK
Track 11
Filename E:\!Rips\FUNK @ SOUL\Norman Connors - Saturday Night Special 1975 (NEX CD 186)\11 – You are my starship.wav
Peak level 99.4 %
Track quality 100.0 %
Test CRC 1156EEC3
Copy CRC 1156EEC3
Track not present in AccurateRip database
Copy OK
Track 12
Filename E:\!Rips\FUNK @ SOUL\Norman Connors - Saturday Night Special 1975 (NEX CD 186)\12 – Just imagination.wav
Peak level 97.6 %
Track quality 100.0 %
Test CRC D76FF69A
Copy CRC D76FF69A
Track not present in AccurateRip database
Copy OK
Track 13
Filename E:\!Rips\FUNK @ SOUL\Norman Connors - Saturday Night Special 1975 (NEX CD 186)\13 – So much love.wav
Peak level 92.7 %
Track quality 100.0 %
Test CRC A7CA1E94
Copy CRC A7CA1E94
Track not present in AccurateRip database
Copy OK
Track 14
Filename E:\!Rips\FUNK @ SOUL\Norman Connors - Saturday Night Special 1975 (NEX CD 186)\14 – The Creator has a master plan.wav
Peak level 88.5 %
Track quality 100.0 %
Test CRC 27D4396D
Copy CRC 27D4396D
Track not present in AccurateRip database
Copy OK
None of the tracks are present in the AccurateRip database
No errors occurred
End of status report
 
CUE
REM GENRE Jazz
REM DATE 1975
REM DISCID C410B20E
REM COMMENT "ExactAudioCopy v0.99pb5"
PERFORMER "Norman Connors"
TITLE "Saturday night special (1-7) / You are my starship (8-14)"
FILE "01 – Saturday night special.wav" WAVE
TRACK 01 AUDIO
TITLE "Saturday night special"
PERFORMER "Norman Connors"
INDEX 01 00:00:00
FILE "02 – Dindi.wav" WAVE
TRACK 02 AUDIO
TITLE "Dindi"
PERFORMER "Norman Connors"
INDEX 01 00:00:00
FILE "03 – Maiden voyage.wav" WAVE
TRACK 03 AUDIO
TITLE "Maiden voyage"
PERFORMER "Norman Connors"
INDEX 01 00:00:00
FILE "04 – Valentine love.wav" WAVE
TRACK 04 AUDIO
TITLE "Valentine love"
PERFORMER "Norman Connors"
INDEX 01 00:00:00
FILE "05 – Akia.wav" WAVE
TRACK 05 AUDIO
TITLE "Akia"
PERFORMER "Norman Connors"
INDEX 01 00:00:00
FILE "06 – Skin diver.wav" WAVE
TRACK 06 AUDIO
TITLE "Skin diver"
PERFORMER "Norman Connors"
INDEX 01 00:00:00
FILE "07 – Kwasi.wav" WAVE
TRACK 07 AUDIO
TITLE "Kwasi"
PERFORMER "Norman Connors"
INDEX 01 00:00:00
FILE "08 – We both need each other.wav" WAVE
TRACK 08 AUDIO
TITLE "We both need each other"
PERFORMER "Norman Connors"
INDEX 01 00:00:00
FILE "09 – Betcha by golly wow.wav" WAVE
TRACK 09 AUDIO
TITLE "Betcha by golly wow"
PERFORMER "Norman Connors"
INDEX 01 00:00:00
FILE "10 – Bubbles.wav" WAVE
TRACK 10 AUDIO
TITLE "Bubbles"
PERFORMER "Norman Connors"
INDEX 01 00:00:00
FILE "11 – You are my starship.wav" WAVE
TRACK 11 AUDIO
TITLE "You are my starship"
PERFORMER "Norman Connors"
INDEX 01 00:00:00
FILE "12 – Just imagination.wav" WAVE
TRACK 12 AUDIO
TITLE "Just imagination"
PERFORMER "Norman Connors"
INDEX 01 00:00:00
FILE "13 – So much love.wav" WAVE
TRACK 13 AUDIO
TITLE "So much love"
PERFORMER "Norman Connors"
INDEX 01 00:00:00
FILE "14 – The Creator has a master plan.wav" WAVE
TRACK 14 AUDIO
TITLE "The Creator has a master plan"
PERFORMER "Norman Connors"
INDEX 01 00:00:00
Приватный:
Нет (DHT включён)
Размер:
414.32 Мб (434,444,032 байт) » файлов: 21
Участники:
0 раздают, 0 качают (0 участников всего)
Внешние участники:
--- [ Обновить ]
Никого нет на раздаче - пишите личное сообщение M0p94ok
No seeders - write personal message to M0p94ok
03:19
13
Нет комментариев. Ваш будет первым!