Поиск

(Funk, Soul) Ohio Players - 3 albums (Ecstasy, Ouch!, Pain), 1972-1981, FLAC (tracks+.cue), lossless

(Funk, Soul) Ohio Players - 3 albums (Ecstasy, Ouch!, Pain), 1972-1981, FLAC (tracks+.cue), lossless
Треклист:
Ohio Players - Ecstasy, Ouch!, Pain
Жанр: Funk, Soul
Аудио кодек: FLAC
Тип рипа: tracks+.cue
Битрейт аудио: lossless
Продолжительность: 35:56 + 39:01 + 30:11
Собственноручные рипы с оригинальных дисков от funky_cat!
 
1973 - Ecstasy (CDSEWM 026) (1990 remaster)
Продолжительность:35 min 56
1. Ohio Players - Ecstasy (2:30)
2. Ohio Players - You and Me (3:16)
3. Ohio Players - (Not So) Sad and Lonely (3:44)
4. Ohio Players - (I Wanna Know) Do You Feel It (4:31)
5. Ohio Players - Black Cat (4:32)
6. Ohio Players - Food Stamps Y'All (2:35)
7. Ohio Players - Spinning (3:08)
8. Ohio Players - Sleep Talk (3:17)
9. Ohio Players - Silly Billy (4:31)
10. Ohio Players - Short Change (3:52)
 
Log EAC
Exact Audio Copy V0.99 prebeta 5 from 4. May 2009
EAC extraction logfile from 10. March 2010, 21:56
Ohio Players / Ecstasy
Used drive : ASUS DRW-1608P2 Adapter: 0 ID: 0
Read mode : Secure
Utilize accurate stream : Yes
Defeat audio cache : Yes
Make use of C2 pointers : No
Read offset correction : 48
Overread into Lead-In and Lead-Out : No
Fill up missing offset samples with silence : Yes
Delete leading and trailing silent blocks : No
Null samples used in CRC calculations : Yes
Used interface : Native Win32 interface for Win NT & 2000
Gap handling : Appended to previous track
Used output format : User Defined Encoder
Selected bitrate : 320 kBit/s
Quality : High
Add ID3 tag : No
Command line compressor : C:\Program Files\FLAC\flac.exe
Additional command line options : -5 -V -T "ARTIST=%a" -T "TITLE=%t" -T "ALBUM=%g" -T "DATE=%y" -T "TRACKNUMBER=%n" -T "GENRE=%m" -T "COMMENT=Ripped By andygrakoff aka yetiisyou" %s
TOC of the extracted CD
Track | Start | Length | Start sector | End sector
---------------------------------------------------------
1 | 0:00.00 | 2:30.00 | 0 | 11249
2 | 2:30.00 | 3:16.45 | 11250 | 25994
3 | 5:46.45 | 3:44.07 | 25995 | 42801
4 | 9:30.52 | 4:31.13 | 42802 | 63139
5 | 14:01.65 | 4:32.57 | 63140 | 83596
6 | 18:34.47 | 2:35.40 | 83597 | 95261
7 | 21:10.12 | 3:08.53 | 95262 | 109414
8 | 24:18.65 | 3:17.07 | 109415 | 124196
9 | 27:35.72 | 4:31.38 | 124197 | 144559
10 | 32:07.35 | 3:52.50 | 144560 | 162009
Track 1
Filename E:\!Rips\FUNK @ SOUL\Ohio Players - Ecstasy (CDSEWM 026)\01 – Ecstasy.wav
Pre-gap length 0:00:02.00
Peak level 97.4 %
Track quality 100.0 %
Test CRC 1549B6A5
Copy CRC 1549B6A5
Cannot be verified as accurate (confidence 2) [805A7AA5], AccurateRip returned [91F8BB25]
Copy OK
Track 2
Filename E:\!Rips\FUNK @ SOUL\Ohio Players - Ecstasy (CDSEWM 026)\02 – You and Me.wav
Pre-gap length 0:00:02.10
Peak level 98.7 %
Track quality 100.0 %
Test CRC 6EFA22A1
Copy CRC 6EFA22A1
Cannot be verified as accurate (confidence 2) [C61021DE], AccurateRip returned [3C2E635E]
Copy OK
Track 3
Filename E:\!Rips\FUNK @ SOUL\Ohio Players - Ecstasy (CDSEWM 026)\03 – (Not So) Sad and Lonely.wav
Pre-gap length 0:00:02.77
Peak level 96.8 %
Track quality 100.0 %
Test CRC 73D0E676
Copy CRC 73D0E676
Cannot be verified as accurate (confidence 2) [C34AF0B2], AccurateRip returned [735C443A]
Copy OK
Track 4
Filename E:\!Rips\FUNK @ SOUL\Ohio Players - Ecstasy (CDSEWM 026)\04 – (I Wanna Know) Do You Feel It.wav
Pre-gap length 0:00:02.16
Peak level 93.1 %
Track quality 100.0 %
Test CRC C7970D8D
Copy CRC C7970D8D
Cannot be verified as accurate (confidence 2) [D9F0835C], AccurateRip returned [6C8E8950]
Copy OK
Track 5
Filename E:\!Rips\FUNK @ SOUL\Ohio Players - Ecstasy (CDSEWM 026)\05 – Black Cat.wav
Pre-gap length 0:00:03.44
Peak level 96.4 %
Track quality 100.0 %
Test CRC 9EA9BFC2
Copy CRC 9EA9BFC2
Cannot be verified as accurate (confidence 2) [B47565BA], AccurateRip returned [1025EE32]
Copy OK
Track 6
Filename E:\!Rips\FUNK @ SOUL\Ohio Players - Ecstasy (CDSEWM 026)\06 – Food Stamps Y'All.wav
Pre-gap length 0:00:03.13
Peak level 67.6 %
Track quality 100.0 %
Test CRC 6A82F1B1
Copy CRC 6A82F1B1
Cannot be verified as accurate (confidence 2) [01FFF583], AccurateRip returned [6EE888EF]
Copy OK
Track 7
Filename E:\!Rips\FUNK @ SOUL\Ohio Players - Ecstasy (CDSEWM 026)\07 – Spinning.wav
Pre-gap length 0:00:03.02
Peak level 100.0 %
Track quality 100.0 %
Test CRC 7645157C
Copy CRC 7645157C
Cannot be verified as accurate (confidence 2) [45FC8EC5], AccurateRip returned [3C5CB0D5]
Copy OK
Track 8
Filename E:\!Rips\FUNK @ SOUL\Ohio Players - Ecstasy (CDSEWM 026)\08 – Sleep Talk.wav
Pre-gap length 0:00:02.20
Peak level 100.0 %
Track quality 100.0 %
Test CRC CE6EE5E6
Copy CRC CE6EE5E6
Cannot be verified as accurate (confidence 2) [E0CC85F4], AccurateRip returned [BDB8F878]
Copy OK
Track 9
Filename E:\!Rips\FUNK @ SOUL\Ohio Players - Ecstasy (CDSEWM 026)\09 – Silly Billy.wav
Pre-gap length 0:00:01.06
Peak level 96.0 %
Track quality 100.0 %
Test CRC 41B4D8C8
Copy CRC 41B4D8C8
Cannot be verified as accurate (confidence 2) [FC94D3FC], AccurateRip returned [37361050]
Copy OK
Track 10
Filename E:\!Rips\FUNK @ SOUL\Ohio Players - Ecstasy (CDSEWM 026)\10 – Short Change.wav
Pre-gap length 0:00:03.00
Peak level 100.0 %
Track quality 100.0 %
Test CRC 6928D53A
Copy CRC 6928D53A
Cannot be verified as accurate (confidence 2) [2D988410], AccurateRip returned [31E44CA4]
Copy OK
No tracks could be verified as accurate
You may have a different pressing from the one(s) in the database
No errors occurred
End of status report
 
CUE
REM DATE 1973
REM DISCID 7E08700A
REM COMMENT "ExactAudioCopy v0.99pb5"
PERFORMER "Ohio Players"
TITLE "Ecstasy"
FILE "01 – Ecstasy.wav" WAVE
TRACK 01 AUDIO
TITLE "Ecstasy"
PERFORMER "Ohio Players"
INDEX 01 00:00:00
TRACK 02 AUDIO
TITLE "You and Me"
PERFORMER "Ohio Players"
INDEX 00 02:27:67
FILE "02 – You and Me.wav" WAVE
INDEX 01 00:00:00
TRACK 03 AUDIO
TITLE "(Not So) Sad and Lonely"
PERFORMER "Ohio Players"
INDEX 00 03:13:62
FILE "03 – (Not So) Sad and Lonely.wav" WAVE
INDEX 01 00:00:00
TRACK 04 AUDIO
TITLE "(I Wanna Know) Do You Feel It"
PERFORMER "Ohio Players"
INDEX 00 03:41:70
FILE "04 – (I Wanna Know) Do You Feel It.wav" WAVE
INDEX 01 00:00:00
TRACK 05 AUDIO
TITLE "Black Cat"
PERFORMER "Ohio Players"
INDEX 00 04:27:55
FILE "05 – Black Cat.wav" WAVE
INDEX 01 00:00:00
TRACK 06 AUDIO
TITLE "Food Stamps Y'All"
PERFORMER "Ohio Players"
INDEX 00 04:29:47
FILE "06 – Food Stamps Y'All.wav" WAVE
INDEX 01 00:00:00
TRACK 07 AUDIO
TITLE "Spinning"
PERFORMER "Ohio Players"
INDEX 00 02:32:38
FILE "07 – Spinning.wav" WAVE
INDEX 01 00:00:00
TRACK 08 AUDIO
TITLE "Sleep Talk"
PERFORMER "Ohio Players"
INDEX 00 03:06:38
FILE "08 – Sleep Talk.wav" WAVE
INDEX 01 00:00:00
TRACK 09 AUDIO
TITLE "Silly Billy"
PERFORMER "Ohio Players"
INDEX 00 03:16:02
FILE "09 – Silly Billy.wav" WAVE
INDEX 01 00:00:00
TRACK 10 AUDIO
TITLE "Short Change"
PERFORMER "Ohio Players"
INDEX 00 04:28:38
FILE "10 – Short Change.wav" WAVE
INDEX 01 00:00:00
 
1981 - OUCH! (BOA1039) (remaster 2000)
Продолжительность:39 min 1 sec
1. Ouch! - Do Your Thing (5:09)
2. Ouch! - Star Of The Party (4:09)
3. Ouch! - Sweet Lil' Lady (3:40)
4. Ouch! - Everybody Dance (5:33)
5. Ouch! - My Baby Gets The Best Of My Love (3:25)
6. Ouch! - Just Me (4:41)
7. Ouch! - Thinkin' 'bout You (4:26)
8. Ouch! - Devoted (3:44)
9. Ouch! - I'd Better Take A Coffee Break (4:14)
 
Log EAC
Exact Audio Copy V0.99 prebeta 5 from 4. May 2009
EAC extraction logfile from 6. March 2010, 22:07
Ouch! / Ohio Players
Used drive : ASUS CB-5216A Adapter: 0 ID: 1
Read mode : Secure
Utilize accurate stream : Yes
Defeat audio cache : Yes
Make use of C2 pointers : No
Read offset correction : 6
Overread into Lead-In and Lead-Out : No
Fill up missing offset samples with silence : Yes
Delete leading and trailing silent blocks : No
Null samples used in CRC calculations : Yes
Used interface : Native Win32 interface for Win NT & 2000
Gap handling : Appended to previous track
Used output format : User Defined Encoder
Selected bitrate : 320 kBit/s
Quality : High
Add ID3 tag : No
Command line compressor : C:\Program Files\FLAC\flac.exe
Additional command line options : -5 -V -T "ARTIST=%a" -T "TITLE=%t" -T "ALBUM=%g" -T "DATE=%y" -T "TRACKNUMBER=%n" -T "GENRE=%m" -T "COMMENT=Ripped By andygrakoff aka yetiisyou" %s
TOC of the extracted CD
Track | Start | Length | Start sector | End sector
---------------------------------------------------------
1 | 0:00.00 | 5:09.62 | 0 | 23236
2 | 5:09.62 | 4:09.58 | 23237 | 41969
3 | 9:19.45 | 3:40.50 | 41970 | 58519
4 | 13:00.20 | 5:33.47 | 58520 | 83541
5 | 18:33.67 | 3:25.65 | 83542 | 98981
6 | 21:59.57 | 4:41.53 | 98982 | 120109
7 | 26:41.35 | 4:26.70 | 120110 | 140129
8 | 31:08.30 | 3:44.47 | 140130 | 156976
9 | 34:53.02 | 4:14.48 | 156977 | 176074
Track 1
Filename E:\!Rips\FUNK @ SOUL\Ohio Players - OUCH! (BOA1039)\01. Ouch! – Do Your Thing.wav
Pre-gap length 0:00:02.00
Peak level 98.5 %
Track quality 99.9 %
Test CRC 6A57F6D3
Copy CRC 6A57F6D3
Track not present in AccurateRip database
Copy OK
Track 2
Filename E:\!Rips\FUNK @ SOUL\Ohio Players - OUCH! (BOA1039)\02. Ouch! – Star Of The Party.wav
Pre-gap length 0:00:01.16
Peak level 98.1 %
Track quality 100.0 %
Test CRC BAA0BDAA
Copy CRC BAA0BDAA
Track not present in AccurateRip database
Copy OK
Track 3
Filename E:\!Rips\FUNK @ SOUL\Ohio Players - OUCH! (BOA1039)\03. Ouch! – Sweet Lil' Lady.wav
Pre-gap length 0:00:01.80
Peak level 99.9 %
Track quality 100.0 %
Test CRC E3EEDFF6
Copy CRC E3EEDFF6
Track not present in AccurateRip database
Copy OK
Track 4
Filename E:\!Rips\FUNK @ SOUL\Ohio Players - OUCH! (BOA1039)\04. Ouch! – Everybody Dance.wav
Pre-gap length 0:00:01.06
Peak level 99.3 %
Track quality 100.0 %
Test CRC 7DA4CC86
Copy CRC 7DA4CC86
Track not present in AccurateRip database
Copy OK
Track 5
Filename E:\!Rips\FUNK @ SOUL\Ohio Players - OUCH! (BOA1039)\05. Ouch! – My Baby Gets The Best Of My Love.wav
Pre-gap length 0:00:01.09
Peak level 98.6 %
Track quality 99.9 %
Test CRC C5CDE2B1
Copy CRC C5CDE2B1
Track not present in AccurateRip database
Copy OK
Track 6
Filename E:\!Rips\FUNK @ SOUL\Ohio Players - OUCH! (BOA1039)\06. Ouch! – Just Me.wav
Pre-gap length 0:00:01.46
Peak level 99.1 %
Track quality 100.0 %
Test CRC 8468AD56
Copy CRC 8468AD56
Track not present in AccurateRip database
Copy OK
Track 7
Filename E:\!Rips\FUNK @ SOUL\Ohio Players - OUCH! (BOA1039)\07. Ouch! – Thinkin' 'bout You.wav
Pre-gap length 0:00:01.33
Peak level 99.6 %
Track quality 100.0 %
Test CRC 480542E2
Copy CRC 480542E2
Track not present in AccurateRip database
Copy OK
Track 8
Filename E:\!Rips\FUNK @ SOUL\Ohio Players - OUCH! (BOA1039)\08. Ouch! – Devoted.wav
Pre-gap length 0:00:01.84
Peak level 98.3 %
Track quality 100.0 %
Test CRC 71979A95
Copy CRC 71979A95
Track not present in AccurateRip database
Copy OK
Track 9
Filename E:\!Rips\FUNK @ SOUL\Ohio Players - OUCH! (BOA1039)\09. Ouch! – I'd Better Take A Coffee Break.wav
Pre-gap length 0:00:01.42
Peak level 98.6 %
Track quality 100.0 %
Test CRC F118AB1A
Copy CRC F118AB1A
Track not present in AccurateRip database
Copy OK
None of the tracks are present in the AccurateRip database
No errors occurred
End of status report
 
CUE
REM DATE 1982
REM DISCID 5D092B09
REM COMMENT "ExactAudioCopy v0.99pb5"
PERFORMER "Ouch!"
TITLE "Ohio Players"
FILE "01. Ouch! – Do Your Thing.wav" WAVE
TRACK 01 AUDIO
TITLE "Do Your Thing"
PERFORMER "Ouch!"
INDEX 01 00:00:00
TRACK 02 AUDIO
TITLE "Star Of The Party"
PERFORMER "Ouch!"
INDEX 00 05:08:50
FILE "02. Ouch! – Star Of The Party.wav" WAVE
INDEX 01 00:00:00
TRACK 03 AUDIO
TITLE "Sweet Lil' Lady"
PERFORMER "Ouch!"
INDEX 00 04:07:73
FILE "03. Ouch! – Sweet Lil' Lady.wav" WAVE
INDEX 01 00:00:00
TRACK 04 AUDIO
TITLE "Everybody Dance"
PERFORMER "Ouch!"
INDEX 00 03:39:45
FILE "04. Ouch! – Everybody Dance.wav" WAVE
INDEX 01 00:00:00
TRACK 05 AUDIO
TITLE "My Baby Gets The Best Of My Love"
PERFORMER "Ouch!"
INDEX 00 05:32:40
FILE "05. Ouch! – My Baby Gets The Best Of My Love.wav" WAVE
INDEX 01 00:00:00
TRACK 06 AUDIO
TITLE "Just Me"
PERFORMER "Ouch!"
INDEX 00 03:24:30
FILE "06. Ouch! – Just Me.wav" WAVE
INDEX 01 00:00:00
TRACK 07 AUDIO
TITLE "Thinkin' 'bout You"
PERFORMER "Ouch!"
INDEX 00 04:40:28
FILE "07. Ouch! – Thinkin' 'bout You.wav" WAVE
INDEX 01 00:00:00
TRACK 08 AUDIO
TITLE "Devoted"
PERFORMER "Ouch!"
INDEX 00 04:25:07
FILE "08. Ouch! – Devoted.wav" WAVE
INDEX 01 00:00:00
TRACK 09 AUDIO
TITLE "I'd Better Take A Coffee Break"
PERFORMER "Ouch!"
INDEX 00 03:43:15
FILE "09. Ouch! – I'd Better Take A Coffee Break.wav" WAVE
INDEX 01 00:00:00
 
1972 - Pain (CDSEWM 004) (1989 remaster)
Продолжительность:30 min 11 sec
1. Ohio Players - Pain (6:12)
2. Ohio Players - Never Had A Dream (4:36)
3. Ohio Players - Players Balling (Players Doing Their Own Thing) (4:26)
4. Ohio Players - I Wanna Hear from You (2:52)
5. Ohio Players - The Reds (5:05)
6. Ohio Players - Singing in the Morning (7:00)
 
Log EAC
Содерж
 
CUE
Содерж
Приватный:
Нет (DHT включён)
Размер:
707.26 Мб (741,616,494 байт) » файлов: 50
Участники:
0 раздают, 0 качают (0 участников всего)
Внешние участники:
3 раздают, 1 качают (4 участников всего) [ Обновить ]
Нет сидеров - пишите личное сообщение M0p94ok. Не нравятся торренты? Участники группы Pro-jazz Club могут заказать прямую ссылку на скачивание из облака.
No seeders - write a personal message to M0p94ok. Don't like torrents? Members of Pro-jazz Club group can order a direct download link from the cloud.
03:19
18
Нет комментариев. Ваш будет первым!