Поиск

(Soul Jazz / Jazz Funk) Roy Ayers - Vibesman (Livet at Ronnie Scott's) [1995] - 1995, FLAC (image+.cue), lossless

(Soul Jazz / Jazz Funk) Roy Ayers - Vibesman (Livet at Ronnie Scott's) [1995] - 1995, FLAC (image+.cue), lossless
Треклист:
Roy Ayers - Vibesman (Livet at Ronnie Scott's) [1995]
Жанр: Soul Jazz / Jazz Funk
Год выпуска диска: 1995
Производитель диска: EU
Аудио кодек: FLAC
Тип рипа: image+.cue
Битрейт аудио: lossless
Продолжительность: 75:55
Трэклист:
1. Searchin' (Roy Ayers) 12:36
2. Rapped Up In Your Love (Roy Ayers/Rex Rideout) 6:53
3. Can't You See Me (Roy Ayers/Edwin Birdsong) 4:33
4. Running Away (Roy Ayers/Edwin Birdsong) 6:30
5. Lots Of Love (Roy Ayers/Luther Wilson/Tanya Woods) 6:50
6. Mystic Voyage (Roy Ayers) 10:01
7. Everybody Loves The Sunshine (Roy Ayers) 6:07
8. Ivory Tower (Roy Ayers) 8:29
9. Poo Poo La La (Roy Ayers) 13:50
Доп. информация: Personnel:
Roy Ayers (Vibes and Vocals)
Zachary Breaux (Guitar & Vocals)
Vastine Pettis (Saxophone, Keyboard and Vocals) - 1,6
Rex Rideout (Bass, Synthesizer and Keyboards) - 1,3-6
Dwayne Perdue (Drums and Vocals) - 1,6
Donald Nicks (Bass) - 2-5,7-9
Dennis Davis (Drums) - 2-5,7-9
Ray Gaskins (Saxophones) - 2,7-9
Martin Adams (Keyboards) - 2,7-9
 
Отчёт EAC
EAC extraction logfile from 6. March 2010, 8:55
Roy Ayers / Vibesman - Live at Ronnie Scotts
Used drive : _NEC DVD_RW ND-3500AG Adapter: 0 ID: 0
Read mode : Secure
Utilize accurate stream : Yes
Defeat audio cache : Yes
Make use of C2 pointers : No
Read offset correction : 48
Overread into Lead-In and Lead-Out : No
Fill up missing offset samples with silence : Yes
Delete leading and trailing silent blocks : No
Null samples used in CRC calculations : Yes
Used interface : Native Win32 interface for Win NT & 2000
Used output format : User Defined Encoder
Selected bitrate : 768 kBit/s
Quality : High
Add ID3 tag : No
Command line compressor : C:\Program Files\Exact Audio Copy\FLAC\FLAC.EXE
Additional command line options : -6 -V -T "ARTIST=%a" -T "TITLE=%t" -T "ALBUM=%g" -T "DATE=%y" -T "TRACKNUMBER=%n" -T "GENRE=%m" -T "COMMENT=%e" %s -o %d
TOC of the extracted CD
Track | Start | Length | Start sector | End sector
---------------------------------------------------------
1 | 0:00.32 | 12:36.43 | 32 | 56774
2 | 12:37.00 | 6:53.02 | 56775 | 87751
3 | 19:30.02 | 4:33.43 | 87752 | 108269
4 | 24:03.45 | 6:30.42 | 108270 | 137561
5 | 30:34.12 | 6:50.33 | 137562 | 168344
6 | 37:24.45 | 10:01.42 | 168345 | 213461
7 | 47:26.12 | 6:07.65 | 213462 | 241051
8 | 53:34.02 | 8:29.53 | 241052 | 279279
9 | 62:03.55 | 13:51.07 | 279280 | 341611
Range status and errors
Selected range
Filename J:\eMusic\Rip\Roy Ayers - Vibesman - Live at Ronnie Scotts.wav
Peak level 99.3 %
Range quality 100.0 %
Test CRC 5DA10838
Copy CRC 5DA10838
Copy OK
No errors occurred
AccurateRip summary
Track 1 accurately ripped (confidence 6) [1FDB51C0]
Track 2 accurately ripped (confidence 5) [DD59F127]
Track 3 accurately ripped (confidence 6) [706B07CE]
Track 4 accurately ripped (confidence 6) [19545499]
Track 5 accurately ripped (confidence 6) [B781392B]
Track 6 accurately ripped (confidence 6) [DB12E217]
Track 7 accurately ripped (confidence 6) [EEFDB29F]
Track 8 accurately ripped (confidence 6) [0018AF6F]
Track 9 accurately ripped (confidence 6) [85526B4C]
All tracks accurately ripped
End of status report
Приватный:
Нет (DHT включён)
Размер:
481.88 Мб (505,286,751 байт) » файлов: 9
Участники:
0 раздают, 0 качают (0 участников всего)
Внешние участники:
2 раздают, 1 качают (3 участников всего) [ Обновить ]
Нет сидеров - пишите личное сообщение M0p94ok. Не нравятся торренты? Участники группы Pro-jazz Club могут заказать прямую ссылку на скачивание из облака.
No seeders - write a personal message to M0p94ok. Don't like torrents? Members of Pro-jazz Club group can order a direct download link from the cloud.
03:20
15
Нет комментариев. Ваш будет первым!