Поиск

(Funk, Soul) Pucho & His Latin Soul Brothers - The Hideout (MCD 9340-2) - 2004, FLAC (tracks+.cue), lossless

(Funk, Soul) Pucho & His Latin Soul Brothers - The Hideout (MCD 9340-2) - 2004, FLAC (tracks+.cue), lossless
Треклист:
Pucho & His Latin Soul Brothers - The Hideout
Жанр: Funk, Soul
Год выпуска диска: 2004
Производитель диска: US \ Milestone Records
Аудио кодек: FLAC
Тип рипа: tracks+.cue
Битрейт аудио: lossless
Продолжительность: 48:30
1. The Hideout (5:17)
2. El Abaniquito (4:54)
3. Born to Groove (4:41)
4. Guajeo En Dominante (4:45)
5. Ruby (4:41)
6. Superstition (6:16)
7. Para Mongo (4:42)
8. Good News (4:29)
9. Quiet Village (4:20)
10. Facil (4:25)
Собственноручный рип с оригинального диска от funky_cat!
 
Log EAC
Exact Audio Copy V0.99 prebeta 5 from 4. May 2009
EAC extraction logfile from 7. March 2010, 14:24
Pucho And His Latin Soul Brothers / The Hideout
Used drive : ASUS DRW-1608P2 Adapter: 0 ID: 0
Read mode : Secure
Utilize accurate stream : Yes
Defeat audio cache : Yes
Make use of C2 pointers : No
Read offset correction : 48
Overread into Lead-In and Lead-Out : No
Fill up missing offset samples with silence : Yes
Delete leading and trailing silent blocks : No
Null samples used in CRC calculations : Yes
Used interface : Native Win32 interface for Win NT & 2000
Gap handling : Appended to previous track
Used output format : User Defined Encoder
Selected bitrate : 320 kBit/s
Quality : High
Add ID3 tag : No
Command line compressor : C:\Program Files\FLAC\flac.exe
Additional command line options : -5 -V -T "ARTIST=%a" -T "TITLE=%t" -T "ALBUM=%g" -T "DATE=%y" -T "TRACKNUMBER=%n" -T "GENRE=%m" -T "COMMENT=Ripped By andygrakoff aka yetiisyou" %s
TOC of the extracted CD
Track | Start | Length | Start sector | End sector
---------------------------------------------------------
1 | 0:00.00 | 5:17.37 | 0 | 23811
2 | 5:17.37 | 4:54.03 | 23812 | 45864
3 | 10:11.40 | 4:41.07 | 45865 | 66946
4 | 14:52.47 | 4:45.18 | 66947 | 88339
5 | 19:37.65 | 4:41.07 | 88340 | 109421
6 | 24:18.72 | 6:16.65 | 109422 | 137686
7 | 30:35.62 | 4:42.58 | 137687 | 158894
8 | 35:18.45 | 4:29.10 | 158895 | 179079
9 | 39:47.55 | 4:20.10 | 179080 | 198589
10 | 44:07.65 | 4:25.57 | 198590 | 218521
Track 1
Filename E:\!Rips\FUNK @ SOUL\Pucho & The Latin Soul Brothers - The Hideout (MCD 9340-2)\01 – The Hideout.wav
Pre-gap length 0:00:02.00
Peak level 100.0 %
Track quality 100.0 %
Test CRC F0135732
Copy CRC F0135732
Track not present in AccurateRip database
Copy OK
Track 2
Filename E:\!Rips\FUNK @ SOUL\Pucho & The Latin Soul Brothers - The Hideout (MCD 9340-2)\02 – El Abaniquito.wav
Peak level 100.0 %
Track quality 100.0 %
Test CRC 5B45164B
Copy CRC 5B45164B
Track not present in AccurateRip database
Copy OK
Track 3
Filename E:\!Rips\FUNK @ SOUL\Pucho & The Latin Soul Brothers - The Hideout (MCD 9340-2)\03 – Born to Groove.wav
Peak level 100.0 %
Track quality 100.0 %
Test CRC 56235BB1
Copy CRC 56235BB1
Track not present in AccurateRip database
Copy OK
Track 4
Filename E:\!Rips\FUNK @ SOUL\Pucho & The Latin Soul Brothers - The Hideout (MCD 9340-2)\04 – Guajeo En Dominante.wav
Peak level 100.0 %
Track quality 99.9 %
Test CRC 781B254F
Copy CRC 781B254F
Track not present in AccurateRip database
Copy OK
Track 5
Filename E:\!Rips\FUNK @ SOUL\Pucho & The Latin Soul Brothers - The Hideout (MCD 9340-2)\05 – Ruby.wav
Peak level 98.4 %
Track quality 100.0 %
Test CRC 70F5676C
Copy CRC 70F5676C
Track not present in AccurateRip database
Copy OK
Track 6
Filename E:\!Rips\FUNK @ SOUL\Pucho & The Latin Soul Brothers - The Hideout (MCD 9340-2)\06 – Superstition.wav
Peak level 100.0 %
Track quality 100.0 %
Test CRC 7F7275CE
Copy CRC 7F7275CE
Track not present in AccurateRip database
Copy OK
Track 7
Filename E:\!Rips\FUNK @ SOUL\Pucho & The Latin Soul Brothers - The Hideout (MCD 9340-2)\07 – Para Mongo.wav
Peak level 100.0 %
Track quality 100.0 %
Test CRC E8719D0B
Copy CRC E8719D0B
Track not present in AccurateRip database
Copy OK
Track 8
Filename E:\!Rips\FUNK @ SOUL\Pucho & The Latin Soul Brothers - The Hideout (MCD 9340-2)\08 – Good News.wav
Peak level 100.0 %
Track quality 100.0 %
Test CRC 10FC7257
Copy CRC 10FC7257
Track not present in AccurateRip database
Copy OK
Track 9
Filename E:\!Rips\FUNK @ SOUL\Pucho & The Latin Soul Brothers - The Hideout (MCD 9340-2)\09 – Quiet Village.wav
Peak level 99.7 %
Track quality 100.0 %
Test CRC D956DFA5
Copy CRC D956DFA5
Track not present in AccurateRip database
Copy OK
Track 10
Filename E:\!Rips\FUNK @ SOUL\Pucho & The Latin Soul Brothers - The Hideout (MCD 9340-2)\10 – Facil.wav
Peak level 100.0 %
Track quality 100.0 %
Test CRC 0250754D
Copy CRC 0250754D
Track not present in AccurateRip database
Copy OK
None of the tracks are present in the AccurateRip database
No errors occurred
End of status report
 
CUE
REM GENRE Jazz
REM DATE 2004
REM DISCID 8E0B610A
REM COMMENT "ExactAudioCopy v0.99pb5"
PERFORMER "Pucho And His Latin Soul Brothers"
TITLE "The Hideout"
FILE "01 – The Hideout.wav" WAVE
TRACK 01 AUDIO
TITLE "The Hideout"
PERFORMER "Pucho And His Latin Soul Brothers"
INDEX 01 00:00:00
FILE "02 – El Abaniquito.wav" WAVE
TRACK 02 AUDIO
TITLE "El Abaniquito"
PERFORMER "Pucho And His Latin Soul Brothers"
INDEX 01 00:00:00
FILE "03 – Born to Groove.wav" WAVE
TRACK 03 AUDIO
TITLE "Born to Groove"
PERFORMER "Pucho And His Latin Soul Brothers"
INDEX 01 00:00:00
FILE "04 – Guajeo En Dominante.wav" WAVE
TRACK 04 AUDIO
TITLE "Guajeo En Dominante"
PERFORMER "Pucho And His Latin Soul Brothers"
INDEX 01 00:00:00
FILE "05 – Ruby.wav" WAVE
TRACK 05 AUDIO
TITLE "Ruby"
PERFORMER "Pucho And His Latin Soul Brothers"
INDEX 01 00:00:00
FILE "06 – Superstition.wav" WAVE
TRACK 06 AUDIO
TITLE "Superstition"
PERFORMER "Pucho And His Latin Soul Brothers"
INDEX 01 00:00:00
FILE "07 – Para Mongo.wav" WAVE
TRACK 07 AUDIO
TITLE "Para Mongo"
PERFORMER "Pucho And His Latin Soul Brothers"
INDEX 01 00:00:00
FILE "08 – Good News.wav" WAVE
TRACK 08 AUDIO
TITLE "Good News"
PERFORMER "Pucho And His Latin Soul Brothers"
INDEX 01 00:00:00
FILE "09 – Quiet Village.wav" WAVE
TRACK 09 AUDIO
TITLE "Quiet Village"
PERFORMER "Pucho And His Latin Soul Brothers"
INDEX 01 00:00:00
FILE "10 – Facil.wav" WAVE
TRACK 10 AUDIO
TITLE "Facil"
PERFORMER "Pucho And His Latin Soul Brothers"
INDEX 01 00:00:00
Приватный:
Нет (DHT включён)
Размер:
290.38 Мб (304,487,232 байт) » файлов: 15
Участники:
0 раздают, 0 качают (0 участников всего)
Внешние участники:
5 раздают, 1 качают (6 участников всего) [ Обновить ]
Никого нет на раздаче - пишите личное сообщение M0p94ok
No seeders - write personal message to M0p94ok
03:21
17
Нет комментариев. Ваш будет первым!