Поиск

(Funk, Soul) Rance Allen Group - The Best Of The Rance Allen Group (SCD24 8540-2) (remaster 2002) - 1988, FLAC (tracks+.cue), lossless

(Funk, Soul) Rance Allen Group - The Best Of The Rance Allen Group (SCD24 8540-2) (remaster 2002) - 1988, FLAC (tracks+.cue), lossless
Треклист:
Rance Allen Group - The Best Of The Rance Allen Group
Жанр: Funk, Soul
Год выпуска диска: 1988 (remaster 2002)
Производитель диска: Stax
Аудио кодек: FLAC
Тип рипа: tracks+.cue
Битрейт аудио: lossless
Продолжительность: 00:42:15
1. Ain't No Need Of Crying (3:58)
2. Just My Imagination (Just My Salvation) (3:21)
3. There's Gonna Be A Showdown (2:48)
4. That Will Be Good Enough For Me (4:32)
5. Hot Line To Jesus (4:50)
6. Gonna Make It Alright (2:39)
7. I Belong To You (3:32)
8. I Give My All To You (3:48)
9. Heaven Is Where The Heart Is (3:30)
10. Smile (3:36)
11. I Got To Be Myself (2:52)
12. I Know A Man Who (2:49)
Собственноручный рип с оригинального диска от funky_cat!
 
Log EAC
Exact Audio Copy V0.99 prebeta 5 from 4. May 2009
EAC extraction logfile from 13. March 2010, 14:07
Rance Allen Group / The Best Of The Rance Allen Group
Used drive : ASUS DRW-1608P2 Adapter: 0 ID: 0
Read mode : Secure
Utilize accurate stream : Yes
Defeat audio cache : Yes
Make use of C2 pointers : No
Read offset correction : 48
Overread into Lead-In and Lead-Out : No
Fill up missing offset samples with silence : Yes
Delete leading and trailing silent blocks : No
Null samples used in CRC calculations : Yes
Used interface : Native Win32 interface for Win NT & 2000
Gap handling : Appended to previous track
Used output format : User Defined Encoder
Selected bitrate : 1024 kBit/s
Quality : High
Add ID3 tag : No
Command line compressor : C:\Program Files\FLAC\flac.exe
Additional command line options : -5 -V -T "ARTIST=%a" -T "TITLE=%t" -T "ALBUM=%g" -T "DATE=%y" -T "TRACKNUMBER=%n" -T "GENRE=%m" -T "COMMENT=Ripped by andygrakoff aka yetiisyou" %s
TOC of the extracted CD
Track | Start | Length | Start sector | End sector
---------------------------------------------------------
1 | 0:00.00 | 3:58.31 | 0 | 17880
2 | 3:58.31 | 3:21.58 | 17881 | 33013
3 | 7:20.14 | 2:48.31 | 33014 | 45644
4 | 10:08.45 | 4:32.28 | 45645 | 66072
5 | 14:40.73 | 4:50.40 | 66073 | 87862
6 | 19:31.38 | 2:39.14 | 87863 | 99801
7 | 22:10.52 | 3:32.00 | 99802 | 115701
8 | 25:42.52 | 3:48.48 | 115702 | 132849
9 | 29:31.25 | 3:30.04 | 132850 | 148603
10 | 33:01.29 | 3:36.03 | 148604 | 164806
11 | 36:37.32 | 2:52.02 | 164807 | 177708
12 | 39:29.34 | 2:49.45 | 177709 | 190428
Track 1
Filename E:\!Rips\FUNK @ SOUL\Rance Allen Group - The Best Of The Rance Allen Group (SCD24 8540-2)\01 – Ain't No Need Of Crying.wav
Pre-gap length 0:00:02.00
Peak level 98.7 %
Track quality 99.9 %
Test CRC D4F8CA19
Copy CRC D4F8CA19
Track not present in AccurateRip database
Copy OK
Track 2
Filename E:\!Rips\FUNK @ SOUL\Rance Allen Group - The Best Of The Rance Allen Group (SCD24 8540-2)\02 – Just My Imagination (Just My Salvation).wav
Pre-gap length 0:00:02.00
Peak level 96.7 %
Track quality 100.0 %
Test CRC 1BE1573B
Copy CRC 1BE1573B
Track not present in AccurateRip database
Copy OK
Track 3
Filename E:\!Rips\FUNK @ SOUL\Rance Allen Group - The Best Of The Rance Allen Group (SCD24 8540-2)\03 – There's Gonna Be A Showdown.wav
Pre-gap length 0:00:02.00
Peak level 97.8 %
Track quality 100.0 %
Test CRC F0568D7C
Copy CRC F0568D7C
Track not present in AccurateRip database
Copy OK
Track 4
Filename E:\!Rips\FUNK @ SOUL\Rance Allen Group - The Best Of The Rance Allen Group (SCD24 8540-2)\04 – That Will Be Good Enough For Me.wav
Pre-gap length 0:00:02.00
Peak level 97.0 %
Track quality 100.0 %
Test CRC E4C56157
Copy CRC E4C56157
Track not present in AccurateRip database
Copy OK
Track 5
Filename E:\!Rips\FUNK @ SOUL\Rance Allen Group - The Best Of The Rance Allen Group (SCD24 8540-2)\05 – Hot Line To Jesus.wav
Pre-gap length 0:00:02.00
Peak level 92.7 %
Track quality 99.9 %
Test CRC 7F54EA0C
Copy CRC 7F54EA0C
Track not present in AccurateRip database
Copy OK
Track 6
Filename E:\!Rips\FUNK @ SOUL\Rance Allen Group - The Best Of The Rance Allen Group (SCD24 8540-2)\06 – Gonna Make It Alright.wav
Pre-gap length 0:00:02.00
Peak level 92.7 %
Track quality 100.0 %
Test CRC 6BE21FDB
Copy CRC 6BE21FDB
Track not present in AccurateRip database
Copy OK
Track 7
Filename E:\!Rips\FUNK @ SOUL\Rance Allen Group - The Best Of The Rance Allen Group (SCD24 8540-2)\07 – I Belong To You.wav
Pre-gap length 0:00:02.00
Peak level 89.8 %
Track quality 100.0 %
Test CRC 9B66DC88
Copy CRC 9B66DC88
Track not present in AccurateRip database
Copy OK
Track 8
Filename E:\!Rips\FUNK @ SOUL\Rance Allen Group - The Best Of The Rance Allen Group (SCD24 8540-2)\08 – I Give My All To You.wav
Pre-gap length 0:00:02.00
Peak level 93.6 %
Track quality 100.0 %
Test CRC A0FDD4AF
Copy CRC A0FDD4AF
Track not present in AccurateRip database
Copy OK
Track 9
Filename E:\!Rips\FUNK @ SOUL\Rance Allen Group - The Best Of The Rance Allen Group (SCD24 8540-2)\09 – Heaven Is Where The Heart Is.wav
Pre-gap length 0:00:02.00
Peak level 91.0 %
Track quality 100.0 %
Test CRC 83751C39
Copy CRC 83751C39
Track not present in AccurateRip database
Copy OK
Track 10
Filename E:\!Rips\FUNK @ SOUL\Rance Allen Group - The Best Of The Rance Allen Group (SCD24 8540-2)\10 – Smile.wav
Pre-gap length 0:00:02.00
Peak level 97.4 %
Track quality 100.0 %
Test CRC 1407EC35
Copy CRC 1407EC35
Track not present in AccurateRip database
Copy OK
Track 11
Filename E:\!Rips\FUNK @ SOUL\Rance Allen Group - The Best Of The Rance Allen Group (SCD24 8540-2)\11 – I Got To Be Myself.wav
Pre-gap length 0:00:02.00
Peak level 90.9 %
Track quality 99.9 %
Test CRC 212F0AC6
Copy CRC 212F0AC6
Track not present in AccurateRip database
Copy OK
Track 12
Filename E:\!Rips\FUNK @ SOUL\Rance Allen Group - The Best Of The Rance Allen Group (SCD24 8540-2)\12 – I Know A Man Who.wav
Pre-gap length 0:00:02.00
Peak level 93.7 %
Track quality 100.0 %
Test CRC 95A0C7A1
Copy CRC 95A0C7A1
Track not present in AccurateRip database
Copy OK
None of the tracks are present in the AccurateRip database
No errors occurred
End of status report
 
CUE
REM GENRE Gospel/Rock/Soul
REM DATE 2002
REM DISCID 9709EB0C
REM COMMENT "ExactAudioCopy v0.99pb5"
PERFORMER "Rance Allen Group"
TITLE "The Best Of The Rance Allen Group"
FILE "01 – Ain't No Need Of Crying.wav" WAVE
TRACK 01 AUDIO
TITLE "Ain't No Need Of Crying"
PERFORMER "Rance Allen Group"
INDEX 01 00:00:00
TRACK 02 AUDIO
TITLE "Just My Imagination (Just My Salvation)"
PERFORMER "Rance Allen Group"
INDEX 00 03:56:31
FILE "02 – Just My Imagination (Just My Salvation).wav" WAVE
INDEX 01 00:00:00
TRACK 03 AUDIO
TITLE "There's Gonna Be A Showdown"
PERFORMER "Rance Allen Group"
INDEX 00 03:19:58
FILE "03 – There's Gonna Be A Showdown.wav" WAVE
INDEX 01 00:00:00
TRACK 04 AUDIO
TITLE "That Will Be Good Enough For Me"
PERFORMER "Rance Allen Group"
INDEX 00 02:46:31
FILE "04 – That Will Be Good Enough For Me.wav" WAVE
INDEX 01 00:00:00
TRACK 05 AUDIO
TITLE "Hot Line To Jesus"
PERFORMER "Rance Allen Group"
INDEX 00 04:30:28
FILE "05 – Hot Line To Jesus.wav" WAVE
INDEX 01 00:00:00
TRACK 06 AUDIO
TITLE "Gonna Make It Alright"
PERFORMER "Rance Allen Group"
INDEX 00 04:48:40
FILE "06 – Gonna Make It Alright.wav" WAVE
INDEX 01 00:00:00
TRACK 07 AUDIO
TITLE "I Belong To You"
PERFORMER "Rance Allen Group"
INDEX 00 02:37:14
FILE "07 – I Belong To You.wav" WAVE
INDEX 01 00:00:00
TRACK 08 AUDIO
TITLE "I Give My All To You"
PERFORMER "Rance Allen Group"
INDEX 00 03:30:00
FILE "08 – I Give My All To You.wav" WAVE
INDEX 01 00:00:00
TRACK 09 AUDIO
TITLE "Heaven Is Where The Heart Is"
PERFORMER "Rance Allen Group"
INDEX 00 03:46:48
FILE "09 – Heaven Is Where The Heart Is.wav" WAVE
INDEX 01 00:00:00
TRACK 10 AUDIO
TITLE "Smile"
PERFORMER "Rance Allen Group"
INDEX 00 03:28:04
FILE "10 – Smile.wav" WAVE
INDEX 01 00:00:00
TRACK 11 AUDIO
TITLE "I Got To Be Myself"
PERFORMER "Rance Allen Group"
INDEX 00 03:34:03
FILE "11 – I Got To Be Myself.wav" WAVE
INDEX 01 00:00:00
TRACK 12 AUDIO
TITLE "I Know A Man Who"
PERFORMER "Rance Allen Group"
INDEX 00 02:50:02
FILE "12 – I Know A Man Who.wav" WAVE
INDEX 01 00:00:00
Приватный:
Нет (DHT включён)
Размер:
291.78 Мб (305,950,064 байт) » файлов: 29
Участники:
0 раздают, 0 качают (0 участников всего)
Внешние участники:
3 раздают, 1 качают (4 участников всего) [ Обновить ]
Никого нет на раздаче - пишите личное сообщение M0p94ok
No seeders - write personal message to M0p94ok
03:22
19
Нет комментариев. Ваш будет первым!