Поиск

(Funk, Soul) Rose Royce - In Full Bloom (3074-2) - 1977 (remaster 1990), FLAC (tracks+.cue), lossless

(Funk, Soul) Rose Royce - In Full Bloom (3074-2) - 1977 (remaster 1990), FLAC (tracks+.cue), lossless
Треклист:
Rose Royce - In Full Bloom
Жанр: Funk, Soul
Год выпуска диска: 1977 (remaster 1990)
Производитель диска: Warner Bros. Records
Аудио кодек: FLAC
Тип рипа: tracks+.cue
Битрейт аудио: lossless
Продолжительность: 00:41:31

1. Rose Royce - Wishing On A Star (4:51)
2. Rose Royce - You Can'T Please Everybody (3:49)
3. Rose Royce - Ooh Boy (4:16)
4. Rose Royce - Do Your Dance (9:17)
5. Rose Royce - You'Re My World Girl (4:10)
6. Rose Royce - Love, More Love (3:16)
7. Rose Royce - Funk Factory (3:06)
8. Rose Royce - It Makes You Feel Like Dancin' (8:46)
Собственноручный рип с оригинального диска от funky_cat!
 
Log EAC
Exact Audio Copy V0.99 prebeta 5 from 4. May 2009
EAC extraction logfile from 7. March 2010, 19:15
Rose Royce / In Full Bloom
Used drive : ASUS CB-5216A Adapter: 0 ID: 1
Read mode : Secure
Utilize accurate stream : Yes
Defeat audio cache : Yes
Make use of C2 pointers : No
Read offset correction : 6
Overread into Lead-In and Lead-Out : No
Fill up missing offset samples with silence : Yes
Delete leading and trailing silent blocks : No
Null samples used in CRC calculations : Yes
Used interface : Native Win32 interface for Win NT & 2000
Gap handling : Appended to previous track
Used output format : User Defined Encoder
Selected bitrate : 320 kBit/s
Quality : High
Add ID3 tag : No
Command line compressor : C:\Program Files\FLAC\flac.exe
Additional command line options : -5 -V -T "ARTIST=%a" -T "TITLE=%t" -T "ALBUM=%g" -T "DATE=%y" -T "TRACKNUMBER=%n" -T "GENRE=%m" -T "COMMENT=Ripped By andygrakoff aka yetiisyou" %s
TOC of the extracted CD
Track | Start | Length | Start sector | End sector
---------------------------------------------------------
1 | 0:00.00 | 4:51.57 | 0 | 21881
2 | 4:51.57 | 3:49.15 | 21882 | 39071
3 | 8:40.72 | 4:16.38 | 39072 | 58309
4 | 12:57.35 | 9:17.47 | 58310 | 100131
5 | 22:15.07 | 4:10.23 | 100132 | 118904
6 | 26:25.30 | 3:16.65 | 118905 | 133669
7 | 29:42.20 | 3:06.65 | 133670 | 147684
8 | 32:49.10 | 8:46.50 | 147685 | 187184
Track 1
Filename E:\!Rips\FUNK @ SOUL\Rose Royce - In Full Bloom (1977) (3074-2)\01 – Wishing On A Star.wav
Pre-gap length 0:00:02.00
Peak level 99.9 %
Track quality 100.0 %
Test CRC 779E277F
Copy CRC 779E277F
Accurately ripped (confidence 4) [73E51435]
Copy OK
Track 2
Filename E:\!Rips\FUNK @ SOUL\Rose Royce - In Full Bloom (1977) (3074-2)\02 – You Can'T Please Everybody.wav
Peak level 96.7 %
Track quality 100.0 %
Test CRC 877C184D
Copy CRC 877C184D
Accurately ripped (confidence 4) [017B11A4]
Copy OK
Track 3
Filename E:\!Rips\FUNK @ SOUL\Rose Royce - In Full Bloom (1977) (3074-2)\03 – Ooh Boy.wav
Pre-gap length 0:00:01.13
Peak level 100.0 %
Track quality 100.0 %
Test CRC FBD341C4
Copy CRC FBD341C4
Accurately ripped (confidence 4) [E64CDCFB]
Copy OK
Track 4
Filename E:\!Rips\FUNK @ SOUL\Rose Royce - In Full Bloom (1977) (3074-2)\04 – Do Your Dance.wav
Peak level 96.4 %
Track quality 100.0 %
Test CRC 4C2D1510
Copy CRC 4C2D1510
Accurately ripped (confidence 4) [A41BF47B]
Copy OK
Track 5
Filename E:\!Rips\FUNK @ SOUL\Rose Royce - In Full Bloom (1977) (3074-2)\05 – You'Re My World Girl.wav
Pre-gap length 0:00:01.26
Peak level 99.9 %
Track quality 100.0 %
Test CRC 57F7303E
Copy CRC 57F7303E
Accurately ripped (confidence 4) [CCC1AF8C]
Copy OK
Track 6
Filename E:\!Rips\FUNK @ SOUL\Rose Royce - In Full Bloom (1977) (3074-2)\06 – Love, More Love.wav
Peak level 99.9 %
Track quality 100.0 %
Test CRC F39F463E
Copy CRC F39F463E
Accurately ripped (confidence 4) [7F427205]
Copy OK
Track 7
Filename E:\!Rips\FUNK @ SOUL\Rose Royce - In Full Bloom (1977) (3074-2)\07 – Funk Factory.wav
Peak level 99.3 %
Track quality 100.0 %
Test CRC 8194FE80
Copy CRC 8194FE80
Accurately ripped (confidence 4) [36B508CB]
Copy OK
Track 8
Filename E:\!Rips\FUNK @ SOUL\Rose Royce - In Full Bloom (1977) (3074-2)\08 – It Makes You Feel Like Dancin'.wav
Peak level 99.4 %
Track quality 99.9 %
Test CRC EFA63D14
Copy CRC EFA63D14
Accurately ripped (confidence 4) [C4205583]
Copy OK
All tracks accurately ripped
No errors occurred
End of status report
 
CUE
REM GENRE GROUPS
REM DATE 1990
REM DISCID 7909BF08
REM COMMENT "ExactAudioCopy v0.99pb5"
PERFORMER "Rose Royce"
TITLE "In Full Bloom"
FILE "01 – Wishing On A Star.wav" WAVE
TRACK 01 AUDIO
TITLE "Wishing On A Star"
PERFORMER "Rose Royce"
INDEX 01 00:00:00
FILE "02 – You Can'T Please Everybody.wav" WAVE
TRACK 02 AUDIO
TITLE "You Can'T Please Everybody"
PERFORMER "Rose Royce"
INDEX 01 00:00:00
TRACK 03 AUDIO
TITLE "Ooh Boy"
PERFORMER "Rose Royce"
INDEX 00 03:48:05
FILE "03 – Ooh Boy.wav" WAVE
INDEX 01 00:00:00
FILE "04 – Do Your Dance.wav" WAVE
TRACK 04 AUDIO
TITLE "Do Your Dance"
PERFORMER "Rose Royce"
INDEX 01 00:00:00
TRACK 05 AUDIO
TITLE "You'Re My World Girl"
PERFORMER "Rose Royce"
INDEX 00 09:16:27
FILE "05 – You'Re My World Girl.wav" WAVE
INDEX 01 00:00:00
FILE "06 – Love, More Love.wav" WAVE
TRACK 06 AUDIO
TITLE "Love, More Love"
PERFORMER "Rose Royce"
INDEX 01 00:00:00
FILE "07 – Funk Factory.wav" WAVE
TRACK 07 AUDIO
TITLE "Funk Factory"
PERFORMER "Rose Royce"
INDEX 01 00:00:00
FILE "08 – It Makes You Feel Like Dancin'.wav" WAVE
TRACK 08 AUDIO
TITLE "It Makes You Feel Like Dancin'"
PERFORMER "Rose Royce"
INDEX 01 00:00:00
Приватный:
Нет (DHT включён)
Размер:
269.22 Мб (282,294,441 байт) » файлов: 16
Участники:
0 раздают, 0 качают (0 участников всего)
Внешние участники:
--- [ Обновить ]
Никого нет на раздаче - пишите ЛС M0p94ok
No seeders - write PM to M0p94ok
03:22
10
Нет комментариев. Ваш будет первым!