Поиск

(Soul, R&B) Roberta Flack "Set The Night To Music " CD - 1991, FLAC (tracks+.cue), lossless

(Soul, R&B) Roberta Flack "Set The Night To Music " CD - 1991, FLAC (tracks+.cue), lossless
Треклист:
(Soul, R&B) Roberta Flack "Set The Night To Music " CD
Жанр:soul, R&B
Год выпуска диска: 1991
Производитель диска: Atlantic Record, USA
Аудио кодек: FLAC
Тип рипа:tracks+.cue
Битрейт аудио: lossless
Продолжительность: 50:27
Трэклист:
1. The Waiting Game
2. Set The Night To Music (with Maxi Priest)
3. When Someone Tears Your Heart In Two
4. Something Your Heart Has Been Telling Me
5. You Make Me Feel Brand New
6. Unforgettable
7. Summertime
8. Natural Thing
9. My Foolish Heart
10. Friend
11. Always
Доп. информация: Собственный Rip с оригинального CD из моей коллекции
Торрент был исправлен и изменен 19.03.2010 в 22:05
FLAC:
 
скрытый текст
Exact Audio Copy V0.99 prebeta 5 from 4. May 2009
EAC extraction logfile from 19. March 2010, 21:52
ROBERTA FLACK / SET THE NIGHT TO MUSIC
Used drive : MATSHITADVD-RAM UJ-841S Adapter: 0 ID: 0
Read mode : Secure
Utilize accurate stream : Yes
Defeat audio cache : Yes
Make use of C2 pointers : No
Read offset correction : 102
Overread into Lead-In and Lead-Out : No
Fill up missing offset samples with silence : Yes
Delete leading and trailing silent blocks : No
Null samples used in CRC calculations : Yes
Used interface : Installed external ASPI interface
Gap handling : Appended to previous track
Used output format : User Defined Encoder
Selected bitrate : 128 kBit/s
Quality : High
Add ID3 tag : No
Command line compressor : C:\Program Files\Exact Audio Copy\Flac\flac.exe
Additional command line options : -8 -V -T "ARTIST=%a" -T "TITLE=%t" -T "ALBUM=%g" -T "DATE=%y" -T "TRACKNUMBER=%n" -T "GENRE=%m" -T "COMMENT=EAC FLAC -8" %s
TOC of the extracted CD
Track | Start | Length | Start sector | End sector
---------------------------------------------------------
1 | 0:00.32 | 4:39.13 | 32 | 20969
2 | 4:39.45 | 5:23.30 | 20970 | 45224
3 | 10:03.00 | 4:06.02 | 45225 | 63676
4 | 14:09.02 | 4:55.03 | 63677 | 85804
5 | 19:04.05 | 5:02.17 | 85805 | 108471
6 | 24:06.22 | 4:59.43 | 108472 | 130939
7 | 29:05.65 | 4:23.30 | 130940 | 150694
8 | 33:29.20 | 4:39.60 | 150695 | 171679
9 | 38:09.05 | 4:41.65 | 171680 | 192819
10 | 42:50.70 | 3:00.42 | 192820 | 206361
11 | 45:51.37 | 4:35.55 | 206362 | 227041
Track 1
Filename C:\Documents and Settings\Admin\Мои документы\Roberta Flack\01. ROBERTA FLACK -Track01.wav
Pre-gap length 0:00:02.42
Peak level 100.0 %
Track quality 100.0 %
Test CRC 1E7988B6
Copy CRC 1E7988B6
Accurately ripped (confidence 3) [27252B2D]
Copy OK
Track 2
Filename C:\Documents and Settings\Admin\Мои документы\Roberta Flack\02. ROBERTA FLACK -Track02.wav
Pre-gap length 0:00:00.44
Peak level 100.0 %
Track quality 99.9 %
Test CRC EE1232E6
Copy CRC EE1232E6
Accurately ripped (confidence 3) [49F9B2FB]
Copy OK
Track 3
Filename C:\Documents and Settings\Admin\Мои документы\Roberta Flack\03. ROBERTA FLACK -Track03.wav
Pre-gap length 0:00:00.66
Peak level 99.9 %
Track quality 99.9 %
Test CRC 1A3DB3EB
Copy CRC 1A3DB3EB
Accurately ripped (confidence 3) [113FF04E]
Copy OK
Track 4
Filename C:\Documents and Settings\Admin\Мои документы\Roberta Flack\04. ROBERTA FLACK -Track04.wav
Pre-gap length 0:00:01.13
Peak level 100.0 %
Track quality 100.0 %
Test CRC EE159F82
Copy CRC EE159F82
Accurately ripped (confidence 3) [DEF8B7B7]
Copy OK
Track 5
Filename C:\Documents and Settings\Admin\Мои документы\Roberta Flack\05. ROBERTA FLACK -Track05.wav
Pre-gap length 0:00:02.46
Peak level 99.9 %
Track quality 100.0 %
Test CRC CCE6025C
Copy CRC CCE6025C
Accurately ripped (confidence 3) [C6EA5B2B]
Copy OK
Track 6
Filename C:\Documents and Settings\Admin\Мои документы\Roberta Flack\06. ROBERTA FLACK -Track06.wav
Pre-gap length 0:00:00.53
Peak level 99.9 %
Track quality 100.0 %
Test CRC 437820BC
Copy CRC 437820BC
Accurately ripped (confidence 3) [04976681]
Copy OK
Track 7
Filename C:\Documents and Settings\Admin\Мои документы\Roberta Flack\07. ROBERTA FLACK -Track07.wav
Pre-gap length 0:00:00.90
Peak level 100.0 %
Track quality 100.0 %
Test CRC AA45A93E
Copy CRC AA45A93E
Accurately ripped (confidence 3) [DC403A6C]
Copy OK
Track 8
Filename C:\Documents and Settings\Admin\Мои документы\Roberta Flack\08. ROBERTA FLACK -Track08.wav
Pre-gap length 0:00:01.37
Peak level 100.0 %
Track quality 100.0 %
Test CRC 1A80B60A
Copy CRC 1A80B60A
Accurately ripped (confidence 3) [9479FA6F]
Copy OK
Track 9
Filename C:\Documents and Settings\Admin\Мои документы\Roberta Flack\09. ROBERTA FLACK -Track09.wav
Pre-gap length 0:00:00.80
Peak level 99.8 %
Track quality 100.0 %
Test CRC F713806D
Copy CRC F713806D
Accurately ripped (confidence 3) [76E5C7FF]
Copy OK
Track 10
Filename C:\Documents and Settings\Admin\Мои документы\Roberta Flack\10. ROBERTA FLACK -Track10.wav
Peak level 98.3 %
Track quality 100.0 %
Test CRC 2BFAD29B
Copy CRC 2BFAD29B
Accurately ripped (confidence 3) [17220FF7]
Copy OK
Track 11
Filename C:\Documents and Settings\Admin\Мои документы\Roberta Flack\11. ROBERTA FLACK -Track11.wav
Pre-gap length 0:00:00.89
Peak level 93.3 %
Track quality 100.0 %
Test CRC E991929F
Copy CRC E991929F
Accurately ripped (confidence 2) [A4CC7951]
Copy OK
All tracks accurately ripped
No errors occurred
End of status report
CUE:
 
скрытый текст
REM GENRE Soul
REM DATE 1991
REM DISCID 890BD30B
REM COMMENT "ExactAudioCopy v0.99pb5"
PERFORMER "Roberta Flack"
TITLE "Set The Night To Music"
FILE "01. Roberta Flack -The Waiting Game.wav" WAVE
TRACK 01 AUDIO
TITLE "The Waiting Game"
PERFORMER "Roberta Flack"
PREGAP 00:00:32
INDEX 01 00:00:00
TRACK 02 AUDIO
TITLE "Set the Night To Music"
PERFORMER "Roberta Flack"
INDEX 00 04:38:55
FILE "02. Roberta Flack -Set the Night To Music.wav" WAVE
INDEX 01 00:00:00
TRACK 03 AUDIO
TITLE "When Someone Tears Your Heart In Two"
PERFORMER "Roberta Flack"
INDEX 00 05:22:55
FILE "03. Roberta Flack -When Someone Tears Your Heart In Two.wav" WAVE
INDEX 01 00:00:00
TRACK 04 AUDIO
TITLE "Something Your Heart Has Been Telling Me"
PERFORMER "Roberta Flack"
INDEX 00 04:04:67
FILE "04. Roberta Flack -Something Your Heart Has Been Telling Me.wav" WAVE
INDEX 01 00:00:00
TRACK 05 AUDIO
TITLE "You Make Me Feel Brand New"
PERFORMER "Roberta Flack"
INDEX 00 04:52:43
FILE "05. Roberta Flack -You Make Me Feel Brand New.wav" WAVE
INDEX 01 00:00:00
TRACK 06 AUDIO
TITLE "Unforgettable"
PERFORMER "Roberta Flack"
INDEX 00 05:01:52
FILE "06. Roberta Flack -Unforgettable.wav" WAVE
INDEX 01 00:00:00
TRACK 07 AUDIO
TITLE "Summertime"
PERFORMER "Roberta Flack"
INDEX 00 04:58:50
FILE "07. Roberta Flack -Summertime.wav" WAVE
INDEX 01 00:00:00
TRACK 08 AUDIO
TITLE "Natural Thing"
PERFORMER "Roberta Flack"
INDEX 00 04:22:02
FILE "08. Roberta Flack -Natural Thing.wav" WAVE
INDEX 01 00:00:00
TRACK 09 AUDIO
TITLE "My Foolish Heart"
PERFORMER "Roberta Flack"
INDEX 00 04:39:00
FILE "09. Roberta Flack -My Foolish Heart.wav" WAVE
INDEX 01 00:00:00
FILE "10. Roberta Flack -Friend.wav" WAVE
TRACK 10 AUDIO
TITLE "Friend"
PERFORMER "Roberta Flack"
INDEX 01 00:00:00
TRACK 11 AUDIO
TITLE "Always"
PERFORMER "Roberta Flack"
INDEX 00 02:59:50
FILE "11. Roberta Flack -Always.wav" WAVE
INDEX 01 00:00:00
Приватный:
Нет (DHT включён)
Размер:
330.27 Мб (346,310,733 байт) » файлов: 14
Участники:
0 раздают, 0 качают (0 участников всего)
Внешние участники:
--- [ Обновить ]
Никого нет на раздаче - пишите личное сообщение M0p94ok
No seeders - write personal message to M0p94ok
03:23
12
Нет комментариев. Ваш будет первым!