Вы используете незарегистрированную версию компонента "Вкладки"!

Поиск

(Vocal / Piano jazz / Traditional Pop) Harry Connick, Jr. : Harry Connick, Jr. (1987) / "20" (1988) / Lofty`s Roach Souffle (1990) / We Are In Love (1990) , FLAC (tracks+.cue) , FLAC (image+.cue) , lossless

Треклист:
Harry Connick, Jr. : Harry Connick, Jr. (1987) / "20" (1988) / Lofty`s Roach Souffle (1990) / We Are In Love (1990)
Жанр: Vocal / Piano jazz / Traditional Pop
Аудио кодек: FLAC
Тип рипа: tracks+.cue / image+.cue
Битрейт аудио: lossless
.
.
.
.
.
.
.
.
.
.
.

Трэклист и прочее :
 
Harry Connick, Jr. (image+.cue)(00:39:02) : Columbia(USA)-CK 40702-(1987)

Трэклист:
01. Love is Here to Stay (4:13)
02. Little Clown (5:52)
03. Zealousy (1:37)
04. Sunny Side of the Street (3:26)
05. I Mean You (5:26)
06. Vocation (5:04)
07. On Green Dolphin Street (5:03)
08. Little Waltz (4:16)
09. E (4:05)
 
Лог EAC
Exact Audio Copy V0.99 prebeta 5 from 4. May 2009
Отчёт EAC об извлечении, выполненном 2. июня 2010, 21:08
Harry Connick, Jr. / Harry Connick, Jr.
Дисковод: SONY DVD RW DRX-S70U Adapter: 1 ID: 0
Режим чтения : Достоверность
Использование точного потока : Да
Отключение кэша аудио : Да
Использование указателей C2 : Нет
Коррекция смещения при чтении : 48
Способность читать области Lead-in и Lead-out : Нет
Заполнение пропущенных сэмплов тишиной : Да
Удаление блоков с тишиной в начале и конце : Нет
При вычислениях CRC использовались нулевые сэмплы : Да
Интерфейс : Встроенный Win32-интерфейс для Win NT/2000
Выходной формат : Пользовательский кодировщик
Выбранный битрейт : 768 kBit/s
Качество : Высокий
Добавление ID3-тэга : Да
Утилита сжатия : H:\Program Files\Exact Audio Copy\Flac\flac.exe
Дополнительные параметры : -6 -V -T "ARTIST=%a" -T "TITLE=%t" -T "ALBUM=%g" -T "DATE=%y" -T "TRACKNUMBER=%n" -T "GENRE=%m" -T "COMMENT=%e" %s -o %d
TOC извлечённого CD
Трек | Старт | Длительность | Начальный сектор | Конечный сектор
---------------------------------------------------------------------
1 | 0:00.00 | 4:13.02 | 0 | 18976
2 | 4:13.02 | 5:51.65 | 18977 | 45366
3 | 10:04.67 | 1:36.70 | 45367 | 52636
4 | 11:41.62 | 3:26.23 | 52637 | 68109
5 | 15:08.10 | 5:25.62 | 68110 | 92546
6 | 20:33.72 | 5:04.23 | 92547 | 115369
7 | 25:38.20 | 5:03.10 | 115370 | 138104
8 | 30:41.30 | 4:15.50 | 138105 | 157279
9 | 34:57.05 | 4:04.57 | 157280 | 175636
Характеристики диапазона извлечения и сообщения об ошибках
Выбранный диапазон
Имя файла F:\Harry Connick, Jr. 4CD\Harry Connick, Jr. 1987\Harry Connick, Jr. - Harry Connick, Jr..wav
Пиковый уровень 100.0 %
Качество диапазона 100.0 %
CRC теста 8DB7A052
CRC копии 8DB7A052
Копирование... OK
Ошибок не произошло
AccurateRip: сводка
Трек 1 точное извлечение (доверие 20) [DEB72650]
Трек 2 точное извлечение (доверие 20) [26443C31]
Трек 3 точное извлечение (доверие 20) [B4F394A0]
Трек 4 точное извлечение (доверие 20) [2E9C5FAC]
Трек 5 точное извлечение (доверие 20) [BB416241]
Трек 6 точное извлечение (доверие 20) [9875A240]
Трек 7 точное извлечение (доверие 20) [A2DEBEC4]
Трек 8 точное извлечение (доверие 20) [30053638]
Трек 9 точное извлечение (доверие 21) [98D1FCCB]
Все треки извлечены точно
Конец отчёта
 
Лог Audiochecker
AUDIOCHECKER v2.0 beta (build 457) - by Dester - opdester@freemail.hu
~~~~~~~~~~~~~~~~~~~~~~~~~~~~~~~~~~
-=== НЕ РЕДАКТИРУЙТЕ ЭТОТ ФАЙЛ! ===-
Путь: ...\Harry Connick, Jr. 1987
1 -=- Harry Connick, Jr. - Harry Connick, Jr..flac -=- CDDA (94%)
42209844
 
*CUE
Код:
REM GENRE Jazz
REM DATE 1987
REM DISCID 67092509
REM COMMENT "ExactAudioCopy v0.99pb5"
PERFORMER "Harry Connick, Jr."
TITLE "Harry Connick, Jr."
FILE "Harry Connick, Jr. - Harry Connick, Jr." WAVE
  TRACK 01 AUDIO
    TITLE "Love is Here to Stay"
    PERFORMER "Harry Connick, Jr."
    INDEX 01 00:00:00
  TRACK 02 AUDIO
    TITLE "Little Clown"
    PERFORMER "Harry Connick, Jr."
    INDEX 00 04:10:45
    INDEX 01 04:13:02
  TRACK 03 AUDIO
    TITLE "Zealousy"
    PERFORMER "Harry Connick, Jr."
    INDEX 00 10:03:02
    INDEX 01 10:04:67
  TRACK 04 AUDIO
    TITLE "Sunny Side of the Street"
    PERFORMER "Harry Connick, Jr."
    INDEX 00 11:38:62
    INDEX 01 11:41:62
  TRACK 05 AUDIO
    TITLE "I Mean You"
    PERFORMER "Harry Connick, Jr."
    INDEX 00 15:05:07
    INDEX 01 15:08:10
  TRACK 06 AUDIO
    TITLE "Vocation"
    PERFORMER "Harry Connick, Jr."
    INDEX 00 20:31:37
    INDEX 01 20:33:72
  TRACK 07 AUDIO
    TITLE "On Green Dolphin Street"
    PERFORMER "Harry Connick, Jr."
    INDEX 00 25:37:62
    INDEX 01 25:38:20
  TRACK 08 AUDIO
    TITLE "Little Waltz"
    PERFORMER "Harry Connick, Jr."
    INDEX 00 30:38:22
    INDEX 01 30:41:30
  TRACK 09 AUDIO
    TITLE "E"
    PERFORMER "Harry Connick, Jr."
    INDEX 00 34:55:40
    INDEX 01 34:57:05
 
20 (tracks+.cue)(00:42:18) : Columbia(USA)-CK 44369-(1988)

Трэклист:
01. Avalon (3:46)
02. Blue Skies (3:50)
03. Imagination (4:26)
04. Do You Know What It Means To Miss New Orleans (5:23)
05. Basin Street Blues (3:04)
06. Lazy River (3:39)
07. Please Don't Talk About Me When I'm Gone (2:39)
08. Stars Fell On Alabama (4:52)
09. S'wonderful (3:06)
10. If I Only Had A Brain (3:25)
11. Do Nothin' Till You Hear From Me (4:05)
 
Лог EAC
Exact Audio Copy V0.99 prebeta 5 from 4. May 2009
Отчёт EAC об извлечении, выполненном 2. июня 2010, 0:19
Harry Connick, Jr. / 20
Дисковод: SONY DVD RW DRX-S70U Adapter: 1 ID: 0
Режим чтения : Достоверность
Использование точного потока : Да
Отключение кэша аудио : Да
Использование указателей C2 : Нет
Коррекция смещения при чтении : 48
Способность читать области Lead-in и Lead-out : Нет
Заполнение пропущенных сэмплов тишиной : Да
Удаление блоков с тишиной в начале и конце : Нет
При вычислениях CRC использовались нулевые сэмплы : Да
Интерфейс : Встроенный Win32-интерфейс для Win NT/2000
Обработка зазоров : Добавлено к предыдущему треку
Выходной формат : Пользовательский кодировщик
Выбранный битрейт : 768 kBit/s
Качество : Высокий
Добавление ID3-тэга : Да
Утилита сжатия : H:\Program Files\Exact Audio Copy\Flac\flac.exe
Дополнительные параметры : -6 -V -T "ARTIST=%a" -T "TITLE=%t" -T "ALBUM=%g" -T "DATE=%y" -T "TRACKNUMBER=%n" -T "GENRE=%m" -T "COMMENT=%e" %s -o %d
TOC извлечённого CD
Трек | Старт | Длительность | Начальный сектор | Конечный сектор
---------------------------------------------------------------------
1 | 0:00.00 | 3:46.25 | 0 | 16974
2 | 3:46.25 | 3:49.70 | 16975 | 34219
3 | 7:36.20 | 4:26.10 | 34220 | 54179
4 | 12:02.30 | 5:23.35 | 54180 | 78439
5 | 17:25.65 | 3:04.35 | 78440 | 92274
6 | 20:30.25 | 3:39.15 | 92275 | 108714
7 | 24:09.40 | 2:39.25 | 108715 | 120664
8 | 26:48.65 | 4:52.35 | 120665 | 142599
9 | 31:41.25 | 3:05.62 | 142600 | 156536
10 | 34:47.12 | 3:25.33 | 156537 | 171944
11 | 38:12.45 | 4:05.30 | 171945 | 190349
Трек 1
Имя файла F:\Harry Connick, Jr\20\[01]Avalon.wav
Длина предзазора 0:00:02.00
Пиковый уровень 83.7 %
Качество трека 100.0 %
CRC теста B9E46828
CRC копии B9E46828
Точность не определена (достоверность 9) [83695093], AccurateRip вернул [CF037C1A]
Копирование... OK
Трек 2
Имя файла F:\Harry Connick, Jr\20\[02]Blue Skies.wav
Длина предзазора 0:00:05.00
Пиковый уровень 70.7 %
Качество трека 100.0 %
CRC теста 04B4303F
CRC копии 04B4303F
Точность не определена (достоверность 10) [285555C7], AccurateRip вернул [697AE985]
Копирование... OK
Трек 3
Имя файла F:\Harry Connick, Jr\20\[03]Imagination.wav
Длина предзазора 0:00:04.00
Пиковый уровень 52.9 %
Качество трека 100.0 %
CRC теста 164B8AD7
CRC копии 164B8AD7
Точность не определена (достоверность 9) [8664A9B9], AccurateRip вернул [5F95A4C9]
Копирование... OK
Трек 4
Имя файла F:\Harry Connick, Jr\20\[04]Do You Know What It Means To Miss New Orleans.wav
Длина предзазора 0:00:02.00
Пиковый уровень 86.0 %
Качество трека 100.0 %
CRC теста 2F55D778
CRC копии 2F55D778
Точность не определена (достоверность 9) [06625DC8], AccurateRip вернул [41D0C9FC]
Копирование... OK
Трек 5
Имя файла F:\Harry Connick, Jr\20\[05]Basin Street Blues.wav
Длина предзазора 0:00:04.00
Пиковый уровень 66.5 %
Качество трека 100.0 %
CRC теста D2C22BA6
CRC копии D2C22BA6
Точность не определена (достоверность 10) [EFF4D34B], AccurateRip вернул [E089160F]
Копирование... OK
Трек 6
Имя файла F:\Harry Connick, Jr\20\[06]Lazy River.wav
Длина предзазора 0:00:04.00
Пиковый уровень 61.6 %
Качество трека 100.0 %
CRC теста EFDBBFFD
CRC копии EFDBBFFD
Точность не определена (достоверность 10) [6F826935], AccurateRip вернул [41CEC096]
Копирование... OK
Трек 7
Имя файла F:\Harry Connick, Jr\20\[07]Please Don't Talk About Me When I'm Gone.wav
Длина предзазора 0:00:04.00
Пиковый уровень 71.0 %
Качество трека 100.0 %
CRC теста B7CC81FA
CRC копии B7CC81FA
Точность не определена (достоверность 10) [875F519A], AccurateRip вернул [E509E4E6]
Копирование... OK
Трек 8
Имя файла F:\Harry Connick, Jr\20\[08]Stars Fell On Alabama.wav
Длина предзазора 0:00:03.00
Пиковый уровень 64.0 %
Качество трека 100.0 %
CRC теста 5A8A9048
CRC копии 5A8A9048
Точность не определена (достоверность 9) [FD3ACCC8], AccurateRip вернул [99E17840]
Копирование... OK
Трек 9
Имя файла F:\Harry Connick, Jr\20\[09]S'wonderful.wav
Длина предзазора 0:00:03.00
Пиковый уровень 68.3 %
Качество трека 100.0 %
CRC теста AA808CA3
CRC копии AA808CA3
Точность не определена (достоверность 9) [3672A0C8], AccurateRip вернул [C025DA96]
Копирование... OK
Трек 10
Имя файла F:\Harry Connick, Jr\20\[10]If I Only Had A Brain.wav
Длина предзазора 0:00:04.00
Пиковый уровень 43.1 %
Качество трека 100.0 %
CRC теста 1DFAC4AB
CRC копии 1DFAC4AB
Точность не определена (достоверность 9) [16867FF2], AccurateRip вернул [AB4C2DAA]
Копирование... OK
Трек 11
Имя файла F:\Harry Connick, Jr\20\[11]Do Nothin' Till You Hear From Me.wav
Длина предзазора 0:00:03.00
Пиковый уровень 69.7 %
Качество трека 99.9 %
CRC теста 2B590A6F
CRC копии 2B590A6F
Точность не определена (достоверность 9) [59B86B65], AccurateRip вернул [1AE886DD]
Копирование... OK
Ни один трек не прошёл проверки на точность
В вашей базе может быть иной вариант штамповки диска
Ошибок не произошло
Конец отчёта
 
Лог Audiochecker
AUDIOCHECKER v2.0 beta (build 457) - by Dester - opdester@freemail.hu
~~~~~~~~~~~~~~~~~~~~~~~~~~~~~~~~~~
-=== НЕ РЕДАКТИРУЙТЕ ЭТОТ ФАЙЛ! ===-
Путь: ...\20
01 -=- [01]Avalon.flac -=- CDDA (100%)
02 -=- [02]Blue Skies.flac -=- CDDA (99%)
03 -=- [03]Imagination.flac -=- CDDA (100%)
04 -=- [04]Do You Know What It Means To Miss New Orleans.flac -=- CDDA (100%)
05 -=- [05]Basin Street Blues.flac -=- MPEG (99%)
06 -=- [06]Lazy River.flac -=- CDDA (99%)
07 -=- [07]Please Don't Talk About Me When I'm Gone.flac -=- CDDA (100%)
08 -=- [08]Stars Fell On Alabama.flac -=- MPEG (99%)
09 -=- [09]S'wonderful.flac -=- CDDA (100%)
10 -=- [10]If I Only Had A Brain.flac -=- CDDA (100%)
11 -=- [11]Do Nothin' Till You Hear From Me.flac -=- MPEG (100%)
Сводка 72,73% CDDA
115069828
 
*CUE
Код:
REM GENRE Swing
REM DATE 1988
REM DISCID 8409EA0B
REM COMMENT "ExactAudioCopy v0.99pb5"
PERFORMER "Harry Connick, Jr."
TITLE "20"
FILE "[01]Avalon.wav" WAVE
  TRACK 01 AUDIO
    TITLE "Avalon"
    PERFORMER "Harry Connick, Jr."
    INDEX 01 00:00:00
  TRACK 02 AUDIO
    TITLE "Blue Skies"
    PERFORMER "Harry Connick, Jr."
    INDEX 00 03:41:25
FILE "[02]Blue Skies.wav" WAVE
    INDEX 01 00:00:00
  TRACK 03 AUDIO
    TITLE "Imagination"
    PERFORMER "Harry Connick, Jr."
    INDEX 00 03:45:70
FILE "[03]Imagination.wav" WAVE
    INDEX 01 00:00:00
  TRACK 04 AUDIO
    TITLE "Do You Know What It Means To Miss New Orleans"
    PERFORMER "Harry Connick, Jr."
    INDEX 00 04:24:10
FILE "[04]Do You Know What It Means To Miss New Orleans.wav" WAVE
    INDEX 01 00:00:00
  TRACK 05 AUDIO
    TITLE "Basin Street Blues"
    PERFORMER "Harry Connick, Jr."
    INDEX 00 05:19:35
FILE "[05]Basin Street Blues.wav" WAVE
    INDEX 01 00:00:00
  TRACK 06 AUDIO
    TITLE "Lazy River"
    PERFORMER "Harry Connick, Jr."
    INDEX 00 03:00:35
FILE "[06]Lazy River.wav" WAVE
    INDEX 01 00:00:00
  TRACK 07 AUDIO
    TITLE "Please Don't Talk About Me When I'm Gone"
    PERFORMER "Harry Connick, Jr."
    INDEX 00 03:35:15
FILE "[07]Please Don't Talk About Me When I'm Gone.wav" WAVE
    INDEX 01 00:00:00
  TRACK 08 AUDIO
    TITLE "Stars Fell On Alabama"
    PERFORMER "Harry Connick, Jr."
    INDEX 00 02:36:25
FILE "[08]Stars Fell On Alabama.wav" WAVE
    INDEX 01 00:00:00
  TRACK 09 AUDIO
    TITLE "S'wonderful"
    PERFORMER "Harry Connick, Jr."
    INDEX 00 04:49:35
FILE "[09]S'wonderful.wav" WAVE
    INDEX 01 00:00:00
  TRACK 10 AUDIO
    TITLE "If I Only Had A Brain"
    PERFORMER "Harry Connick, Jr."
    INDEX 00 03:01:62
FILE "[10]If I Only Had A Brain.wav" WAVE
    INDEX 01 00:00:00
  TRACK 11 AUDIO
    TITLE "Do Nothin' Till You Hear From Me"
    PERFORMER "Harry Connick, Jr."
    INDEX 00 03:22:33
FILE "[11]Do Nothin' Till You Hear From Me.wav" WAVE
    INDEX 01 00:00:00
 
Lofty's Roach Souffle (tracks+.cue)(01:03:25) : CBS(Austria)-466949 2-(1990)

Трэклист:
01. One Last Pitch (6:27)
02. Hudson Bommer (5:14)
03. Lonely Side (8:15)
04. Mr. Spill (5:00)
05. Lofty's Roach Soufflй (5:24)
06. Mary Ruth (5:54)
07. Harronymous (5:23)
08. One Last Pitch (Take Two) (3:27)
09. Colomby Day (6:07)
10. Little Dancing Girl (7:33)
11. Bayou Maharajah (4:42)
 
Лог EAC
Exact Audio Copy V0.99 prebeta 5 from 4. May 2009
Отчёт EAC об извлечении, выполненном 2. июня 2010, 12:41
Harry Connick, Jr. / Lofty's Roach Souffle
Дисковод: SONY DVD RW DRX-S70U Adapter: 1 ID: 0
Режим чтения : Достоверность
Использование точного потока : Да
Отключение кэша аудио : Да
Использование указателей C2 : Нет
Коррекция смещения при чтении : 48
Способность читать области Lead-in и Lead-out : Нет
Заполнение пропущенных сэмплов тишиной : Да
Удаление блоков с тишиной в начале и конце : Нет
При вычислениях CRC использовались нулевые сэмплы : Да
Интерфейс : Встроенный Win32-интерфейс для Win NT/2000
Обработка зазоров : Добавлено к предыдущему треку
Выходной формат : Пользовательский кодировщик
Выбранный битрейт : 768 kBit/s
Качество : Высокий
Добавление ID3-тэга : Да
Утилита сжатия : H:\Program Files\Exact Audio Copy\Flac\flac.exe
Дополнительные параметры : -6 -V -T "ARTIST=%a" -T "TITLE=%t" -T "ALBUM=%g" -T "DATE=%y" -T "TRACKNUMBER=%n" -T "GENRE=%m" -T "COMMENT=%e" %s -o %d
TOC извлечённого CD
Трек | Старт | Длительность | Начальный сектор | Конечный сектор
---------------------------------------------------------------------
1 | 0:00.00 | 6:27.30 | 0 | 29054
2 | 6:27.30 | 5:13.60 | 29055 | 52589
3 | 11:41.15 | 8:15.30 | 52590 | 89744
4 | 19:56.45 | 4:59.60 | 89745 | 112229
5 | 24:56.30 | 5:23.47 | 112230 | 136501
6 | 30:20.02 | 5:53.53 | 136502 | 163029
7 | 36:13.55 | 5:22.57 | 163030 | 187236
8 | 41:36.37 | 3:26.70 | 187237 | 202756
9 | 45:03.32 | 6:06.55 | 202757 | 230261
10 | 51:10.12 | 7:33.15 | 230262 | 264251
11 | 58:43.27 | 4:41.43 | 264252 | 285369
Трек 1
Имя файла F:\Harry Connick, Jr\Lofty`s Roach Souffle\[01]One Last Pitch.wav
Длина предзазора 0:00:02.00
Пиковый уровень 90.5 %
Качество трека 100.0 %
CRC теста E6C49A84
CRC копии E6C49A84
Точное извлечение (достоверность 12) [08A70A38]
Копирование... OK
Трек 2
Имя файла F:\Harry Connick, Jr\Lofty`s Roach Souffle\[02]Hudson Bommer.wav
Длина предзазора 0:00:01.13
Пиковый уровень 91.7 %
Качество трека 99.9 %
CRC теста 72A06CA4
CRC копии 72A06CA4
Точное извлечение (достоверность 12) [03A61B44]
Копирование... OK
Трек 3
Имя файла F:\Harry Connick, Jr\Lofty`s Roach Souffle\[03]Lonely Side.wav
Длина предзазора 0:00:01.17
Пиковый уровень 72.4 %
Качество трека 100.0 %
CRC теста 607D9D95
CRC копии 607D9D95
Точное извлечение (достоверность 12) [1708B140]
Копирование... OK
Трек 4
Имя файла F:\Harry Connick, Jr\Lofty`s Roach Souffle\[04]Mr. Spill.wav
Длина предзазора 0:00:00.73
Пиковый уровень 91.1 %
Качество трека 100.0 %
CRC теста C15561D5
CRC копии C15561D5
Точное извлечение (достоверность 12) [C7421D19]
Копирование... OK
Трек 5
Имя файла F:\Harry Connick, Jr\Lofty`s Roach Souffle\[05]Lofty's Roach Soufflй.wav
Длина предзазора 0:00:00.84
Пиковый уровень 74.2 %
Качество трека 100.0 %
CRC теста 5FE74B36
CRC копии 5FE74B36
Точное извлечение (достоверность 12) [0482DCA7]
Копирование... OK
Трек 6
Имя файла F:\Harry Connick, Jr\Lofty`s Roach Souffle\[06]Mary Ruth.wav
Длина предзазора 0:00:00.56
Пиковый уровень 59.7 %
Качество трека 100.0 %
CRC теста 9C828906
CRC копии 9C828906
Точное извлечение (достоверность 12) [3DF6CB2A]
Копирование... OK
Трек 7
Имя файла F:\Harry Connick, Jr\Lofty`s Roach Souffle\[07]Harronymous.wav
Длина предзазора 0:00:01.50
Пиковый уровень 75.2 %
Качество трека 99.9 %
CRC теста 24E4F368
CRC копии 24E4F368
Точное извлечение (достоверность 12) [EEFC55D0]
Копирование... OK
Трек 8
Имя файла F:\Harry Connick, Jr\Lofty`s Roach Souffle\[08]One Last Pitch (Take Two).wav
Длина предзазора 0:00:00.06
Пиковый уровень 97.4 %
Качество трека 100.0 %
CRC теста E68E8C3B
CRC копии E68E8C3B
Точное извлечение (достоверность 12) [85C4C1B7]
Копирование... OK
Трек 9
Имя файла F:\Harry Connick, Jr\Lofty`s Roach Souffle\[09]Colomby Day.wav
Длина предзазора 0:00:00.06
Пиковый уровень 90.0 %
Качество трека 100.0 %
CRC теста DD219484
CRC копии DD219484
Точное извлечение (достоверность 12) [A3FEF9E5]
Копирование... OK
Трек 10
Имя файла F:\Harry Connick, Jr\Lofty`s Roach Souffle\[10]Little Dancing Girl.wav
Длина предзазора 0:00:01.69
Пиковый уровень 48.1 %
Качество трека 100.0 %
CRC теста 6CC80C66
CRC копии 6CC80C66
Точное извлечение (достоверность 11) [22A90351]
Копирование... OK
Трек 11
Имя файла F:\Harry Connick, Jr\Lofty`s Roach Souffle\[11]Bayou Maharajah.wav
Длина предзазора 0:00:01.93
Пиковый уровень 85.5 %
Качество трека 99.9 %
CRC теста F50AF14F
CRC копии F50AF14F
Точное извлечение (достоверность 12) [EA323466]
Копирование... OK
Все треки извлечены точно
Ошибок не произошло
Конец отчёта
 
Лог Audiochecker
AUDIOCHECKER v2.0 beta (build 457) - by Dester - opdester@freemail.hu
~~~~~~~~~~~~~~~~~~~~~~~~~~~~~~~~~~
-=== НЕ РЕДАКТИРУЙТЕ ЭТОТ ФАЙЛ! ===-
Путь: ...\Lofty`s Roach Souffle
01 -=- [01]One Last Pitch.flac -=- CDDA (100%)
02 -=- [02]Hudson Bommer.flac -=- CDDA (100%)
03 -=- [03]Lonely Side.flac -=- CDDA (76%)
04 -=- [04]Mr. Spill.flac -=- CDDA (100%)
05 -=- [05]Lofty's Roach Soufflй.flac -=- CDDA (100%)
06 -=- [06]Mary Ruth.flac -=- CDDA (54%)
07 -=- [07]Harronymous.flac -=- CDDA (100%)
08 -=- [08]One Last Pitch (Take Two).flac -=- CDDA (99%)
09 -=- [09]Colomby Day.flac -=- CDDA (100%)
10 -=- [10]Little Dancing Girl.flac -=- ERROR
11 -=- [11]Bayou Maharajah.flac -=- CDDA (100%)
Сводка 92,90% CDDA
118468276
 
*CUE
Код:
REM GENRE Jazz
REM DATE 1990
REM DISCID A50EDC0B
REM COMMENT "ExactAudioCopy v0.99pb5"
PERFORMER "Harry Connick, Jr."
TITLE "Lofty's Roach Souffle"
FILE "[01]One Last Pitch.wav" WAVE
  TRACK 01 AUDIO
    TITLE "One Last Pitch"
    PERFORMER "Harry Connick, Jr."
    INDEX 01 00:00:00
  TRACK 02 AUDIO
    TITLE "Hudson Bommer"
    PERFORMER "Harry Connick, Jr."
    INDEX 00 06:26:20
FILE "[02]Hudson Bommer.wav" WAVE
    INDEX 01 00:00:00
  TRACK 03 AUDIO
    TITLE "Lonely Side"
    PERFORMER "Harry Connick, Jr."
    INDEX 00 05:12:47
FILE "[03]Lonely Side.wav" WAVE
    INDEX 01 00:00:00
  TRACK 04 AUDIO
    TITLE "Mr. Spill"
    PERFORMER "Harry Connick, Jr."
    INDEX 00 08:14:50
FILE "[04]Mr. Spill.wav" WAVE
    INDEX 01 00:00:00
  TRACK 05 AUDIO
    TITLE "Lofty's Roach Soufflй"
    PERFORMER "Harry Connick, Jr."
    INDEX 00 04:58:72
FILE "[05]Lofty's Roach Soufflй.wav" WAVE
    INDEX 01 00:00:00
  TRACK 06 AUDIO
    TITLE "Mary Ruth"
    PERFORMER "Harry Connick, Jr."
    INDEX 00 05:23:05
FILE "[06]Mary Ruth.wav" WAVE
    INDEX 01 00:00:00
  TRACK 07 AUDIO
    TITLE "Harronymous"
    PERFORMER "Harry Connick, Jr."
    INDEX 00 05:52:15
FILE "[07]Harronymous.wav" WAVE
    INDEX 01 00:00:00
  TRACK 08 AUDIO
    TITLE "One Last Pitch (Take Two)"
    PERFORMER "Harry Connick, Jr."
    INDEX 00 05:22:52
FILE "[08]One Last Pitch (Take Two).wav" WAVE
    INDEX 01 00:00:00
  TRACK 09 AUDIO
    TITLE "Colomby Day"
    PERFORMER "Harry Connick, Jr."
    INDEX 00 03:26:65
FILE "[09]Colomby Day.wav" WAVE
    INDEX 01 00:00:00
  TRACK 10 AUDIO
    TITLE "Little Dancing Girl"
    PERFORMER "Harry Connick, Jr."
    INDEX 00 06:05:03
FILE "[10]Little Dancing Girl.wav" WAVE
    INDEX 01 00:00:00
  TRACK 11 AUDIO
    TITLE "Bayou Maharajah"
    PERFORMER "Harry Connick, Jr."
    INDEX 00 07:31:20
FILE "[11]Bayou Maharajah.wav" WAVE
    INDEX 01 00:00:00
 
We Are In Love (image+.cue)(00:52:49) : CBS(Austria)-466736 2-(1990)

Трэклист:
01. We Are In Love (2:45)
02. Only 'Cause I Don't Have You (4:26)
03. Recipe For Love (2:38)
04. Drifting (5:19)
05. Forever, For Now (4:25)
06. A Nightingale Sang In Berkeley Square (5:13)
07. Heavenly (2:03)
08. Just A Boy (6:10)
09. I've Got A Great Idea (4:25)
10. I'll Dream Of You Again (3:35)
11. It's Alright With Me (4:55)
12. Buried In Blue (6:56)
02. Only 'Cause I Don't Have You (52:49)
 
Лог EAC
Exact Audio Copy V0.99 prebeta 5 from 4. May 2009
Отчёт EAC об извлечении, выполненном 2. июня 2010, 11:26
Harry Connick Jr. / We Are In Love
Дисковод: SONY DVD RW DRX-S70U Adapter: 1 ID: 0
Режим чтения : Достоверность
Использование точного потока : Да
Отключение кэша аудио : Да
Использование указателей C2 : Нет
Коррекция смещения при чтении : 48
Способность читать области Lead-in и Lead-out : Нет
Заполнение пропущенных сэмплов тишиной : Да
Удаление блоков с тишиной в начале и конце : Нет
При вычислениях CRC использовались нулевые сэмплы : Да
Интерфейс : Встроенный Win32-интерфейс для Win NT/2000
Выходной формат : Пользовательский кодировщик
Выбранный битрейт : 768 kBit/s
Качество : Высокий
Добавление ID3-тэга : Да
Утилита сжатия : H:\Program Files\Exact Audio Copy\Flac\flac.exe
Дополнительные параметры : -6 -V -T "ARTIST=%a" -T "TITLE=%t" -T "ALBUM=%g" -T "DATE=%y" -T "TRACKNUMBER=%n" -T "GENRE=%m" -T "COMMENT=%e" %s -o %d
TOC извлечённого CD
Трек | Старт | Длительность | Начальный сектор | Конечный сектор
---------------------------------------------------------------------
1 | 0:00.00 | 2:44.50 | 0 | 12349
2 | 2:44.50 | 4:26.12 | 12350 | 32311
3 | 7:10.62 | 2:38.03 | 32312 | 44164
4 | 9:48.65 | 5:19.05 | 44165 | 68094
5 | 15:07.70 | 4:25.02 | 68095 | 87971
6 | 19:32.72 | 5:13.08 | 87972 | 111454
7 | 24:46.05 | 2:02.57 | 111455 | 120661
8 | 26:48.62 | 6:09.53 | 120662 | 148389
9 | 32:58.40 | 4:24.62 | 148390 | 168251
10 | 37:23.27 | 3:34.70 | 168252 | 184371
11 | 40:58.22 | 4:55.30 | 184372 | 206526
12 | 45:53.52 | 6:55.43 | 206527 | 237694
Характеристики диапазона извлечения и сообщения об ошибках
Выбранный диапазон
Имя файла F:\Harry Connick, Jr\we are in love\Harry Connick Jr. - We Are In Love.wav
Пиковый уровень 100.0 %
Качество диапазона 100.0 %
CRC теста C45056DF
CRC копии C45056DF
Копирование... OK
Ошибок не произошло
AccurateRip: сводка
Трек 1 точное извлечение (доверие 19) [AF8D3D09]
Трек 2 точное извлечение (доверие 19) [27DB443F]
Трек 3 точное извлечение (доверие 20) [070D0245]
Трек 4 точное извлечение (доверие 19) [CD07FE0C]
Трек 5 точное извлечение (доверие 19) [C24967D4]
Трек 6 точное извлечение (доверие 19) [802A5E8D]
Трек 7 точное извлечение (доверие 19) [BAFBFA00]
Трек 8 точное извлечение (доверие 19) [FDA454B1]
Трек 9 точное извлечение (доверие 19) [D8056CB4]
Трек 10 точное извлечение (доверие 19) [D208DA8A]
Трек 11 точное извлечение (доверие 19) [497E5F80]
Трек 12 точное извлечение (доверие 17) [7E8B28A7]
Все треки извлечены точно
Конец отчёта
 
Лог Audiochecker
AUDIOCHECKER v2.0 beta (build 457) - by Dester - opdester@freemail.hu
~~~~~~~~~~~~~~~~~~~~~~~~~~~~~~~~~~
-=== НЕ РЕДАКТИРУЙТЕ ЭТОТ ФАЙЛ! ===-
Путь: ...\we are in love
1 -=- Harry Connick Jr. - We Are In Love.flac -=- CDDA (76%)
174512484
 
*CUE
Код:
REM GENRE "Vocal Music"
REM DATE 1990
REM DISCID A00C610C
REM COMMENT "ExactAudioCopy v0.99pb5"
PERFORMER "Harry Connick Jr."
TITLE "We Are In Love"
FILE "Harry Connick Jr. - We Are In Love.flac" WAVE
  TRACK 01 AUDIO
    TITLE "We Are In Love"
    PERFORMER "Harry Connick Jr."
    INDEX 01 00:00:00
  TRACK 02 AUDIO
    TITLE "Only 'Cause I Don't Have You"
    PERFORMER "Harry Connick Jr."
    INDEX 00 02:42:20
    INDEX 01 02:44:50
  TRACK 03 AUDIO
    TITLE "Recipe For Love"
    PERFORMER "Harry Connick Jr."
    INDEX 00 07:09:02
    INDEX 01 07:10:62
  TRACK 04 AUDIO
    TITLE "Drifting"
    PERFORMER "Harry Connick Jr."
    INDEX 00 09:45:72
    INDEX 01 09:48:65
  TRACK 05 AUDIO
    TITLE "Forever, For Now"
    PERFORMER "Harry Connick Jr."
    INDEX 00 15:05:30
    INDEX 01 15:07:70
  TRACK 06 AUDIO
    TITLE "A Nightingale Sang In Berkeley Square"
    PERFORMER "Harry Connick Jr."
    INDEX 00 19:29:45
    INDEX 01 19:32:72
  TRACK 07 AUDIO
    TITLE "Heavenly"
    PERFORMER "Harry Connick Jr."
    INDEX 00 24:43:10
    INDEX 01 24:46:05
  TRACK 08 AUDIO
    TITLE "Just A Boy"
    PERFORMER "Harry Connick Jr."
    INDEX 00 26:45:45
    INDEX 01 26:48:62
  TRACK 09 AUDIO
    TITLE "I've Got A Great Idea"
    PERFORMER "Harry Connick Jr."
    INDEX 00 32:54:60
    INDEX 01 32:58:40
  TRACK 10 AUDIO
    TITLE "I'll Dream Of You Again"
    PERFORMER "Harry Connick Jr."
    INDEX 00 37:21:20
    INDEX 01 37:23:27
  TRACK 11 AUDIO
    TITLE "It's Alright With Me"
    PERFORMER "Harry Connick Jr."
    INDEX 00 40:56:25
    INDEX 01 40:58:22
  TRACK 12 AUDIO
    TITLE "Buried In Blue"
    PERFORMER "Harry Connick Jr."
    INDEX 00 45:51:47
    INDEX 01 45:53:52
рипы мои . с оригинальных cd из моей коллекции .
Any questions -> support@pro-jazz.com. По всем вопросам пишите -> support@pro-jazz.com
17:19
227
Нет комментариев. Ваш будет первым!