Вы используете незарегистрированную версию компонента "Вкладки"!

Поиск

(Vocal Jazz) Etta Jones — Etta Jones Sings Lady Day — 2001, FLAC (image+.cue), lossless

Треклист:
Etta Jones — Etta Jones Sings Lady Day
Жанр: Vocal Jazz
Год выпуска диска: 2001
Label: HighNote (HCD 7078)
Аудио кодек: FLAC
Тип рипа: image+.cue
Битрейт аудио: lossless
Продолжительность: 56:56
Трeклист:
01. That Ole Devil Called Love (5:12)
02. All Of Me (8:26)
03. But Beautiful (6:18)
04. You've Changed (5:06)
05. I Cried For You (7:48)
06. Fine And Mellow (7:12)
07. God Bless The Child (7:18)
08. Them There Eyes (3:58)
09. You Better Go Now (5:38)
Personnel:
Etta Jones - vocals
Houston Person - tenor saxophone
Richard Wyands - piano
Peter Bernstein - guitar
John Webber - bass
Chip White - drums
Rec.: M & I Recording Studios, New York, NY, June 21, 2001.
Сканы: 600 dpi
   Автор рипа mfrwiz
 
Отчет ЕАС
Exact Audio Copy V0.99 prebeta 5 from 4. May 2009
EAC extraction logfile from 28. October 2009, 11:37
Etta Jones / Etta Jones Sings Lady Day
Used drive : Pioneer BDR-203BK Adapter: 7 ID: 0
Read mode : Secure
Utilize accurate stream : Yes
Defeat audio cache : Yes
Make use of C2 pointers : No
Read offset correction : 6
Overread into Lead-In and Lead-Out : Yes
Fill up missing offset samples with silence : Yes
Delete leading and trailing silent blocks : No
Null samples used in CRC calculations : Yes
Used interface : Native Win32 interface for Win NT & 2000
Used output format : User Defined Encoder
Selected bitrate : 192 kBit/s
Quality : High
Add ID3 tag : No
Command line compressor : C:\Programmi\FLAC\flac.exe
Additional command line options : -T "artist=%a" -T "title=%t" -T "album=%g" -T "date=%y" -T "tracknumber=%n" -T "genre=%m" -5 %s
TOC of the extracted CD
Track | Start | Length | Start sector | End sector
---------------------------------------------------------
1 | 0:00.00 | 5:12.16 | 0 | 23415
2 | 5:12.16 | 8:26.16 | 23416 | 61381
3 | 13:38.32 | 6:17.42 | 61382 | 89698
4 | 19:55.74 | 5:05.72 | 89699 | 112645
5 | 25:01.71 | 7:48.21 | 112646 | 147766
6 | 32:50.17 | 7:12.25 | 147767 | 180191
7 | 40:02.42 | 7:18.09 | 180192 | 213050
8 | 47:20.51 | 3:57.39 | 213051 | 230864
9 | 51:18.15 | 5:37.52 | 230865 | 256191
Range status and errors
Selected range
Filename G:\Music 2\=Da Condividere 2\Etta Jones - Etta Jones Sings Lady Day - 2001\YDYDSGSNTT\Etta Jones - Etta Jones Sings Lady Day.wav
Peak level 94.6 %
Range quality 100.0 %
Copy CRC CFDE289B
Copy OK
No errors occurred
End of status report
    Мои раздачи на трекере
Any questions - support@pro-jazz.com. Есть вопросы - support@pro-jazz.com
17:20
367
Нет комментариев. Ваш будет первым!