Вы используете незарегистрированную версию компонента "Вкладки"!

Поиск

(Vocal Jazz) Etta Jones — So Warm (1961) — 1996, FLAC (image+.cue), lossless

Треклист:
Etta Jones — So Warm (1961)
Жанр: Vocal Jazz
Год выпуска диска: 1996
Label: Fantasy (OJCCD-874-2)
Аудио кодек: FLAC
Тип рипа: image+.cue
Битрейт аудио: lossless
Продолжительность: 38:53
Трeклист:
01. Unchained Melody (4:21)
02. I Laughed At Love (3:35)
03. You Don't Know What Love Is (3:10)
04. Hurry Home (3:36)
05. I Wish I Didn't Love You So (2:04)
06. You Better Go Now (2:01)
07. And This Is My Beloved (3:05)
08. I'm Through With Love (4:06)
09. If You Were Mine (2:45)
10. Can You Look Me In The Eyes (2:51)
11. How Deep Is The Ocean (3:36)
12. All My Life (3:42)
Personnel:
Etta Jones - vocals
Tracks # 3, 5, 9 & 12: Joe Singer, Richard Berg - french horn; Mal Waldron - piano, George Duvivier - bass, Bill English - drums
Tracks # 1, 2, 4, 6-8, 10 & 11: Ray Alonge - french horn, Arthur Clarke, Jerome Richardson, Phil Bodner, Eric Dixon - reeds; George Duvivier - bass, Charlie Persip - drums
Strings arranged and conducted by Oliver Nelson.
Rec.: Englewood Cliffs, NJ; June 9, July 25 & 28, 1961.
Сканы: 300 dpi
Источник: найдено в сети
 
Audiochecker.log
AUDIOCHECKER v2.0 beta (build 457) - by Dester - opdester@freemail.hu
~~~~~~~~~~~~~~~~~~~~~~~~~~~~~~~~~~
Started at: среда, 02. 06. 2010. - 1:41.44
1 file found
1 -===- N:\1961. Etta Jones - So Warm\Etta Jones - So Warm.flac
Extracted successfully
Conclusion: this track is CDDA with probability 100%
Tempfile successfully deleted.
Finished at: среда, 02. 06. 2010. - 1:45.47 (operation time: 0:04.02)
 
Отчет ЕАС
Exact Audio Copy V0.99 prebeta 4 from 23. January 2008
EAC extraction logfile from 4. April 2009, 10:25
Eta Jones / So Warm
Used drive : HL-DT-STRW/DVD GCC-4242N Adapter: 1 ID: 0
Read mode : Secure
Utilize accurate stream : Yes
Defeat audio cache : Yes
Make use of C2 pointers : No
Read offset correction : 102
Overread into Lead-In and Lead-Out : No
Fill up missing offset samples with silence : Yes
Delete leading and trailing silent blocks : No
Null samples used in CRC calculations : Yes
Used interface : Native Win32 interface for Win NT & 2000
Used output format : Internal WAV Routines
Sample format : 44.100 Hz; 16 Bit; Stereo
TOC of the extracted CD
Track | Start | Length | Start sector | End sector
---------------------------------------------------------
1 | 0:00.00 | 4:20.67 | 0 | 19566
2 | 4:20.67 | 3:34.58 | 19567 | 35674
3 | 7:55.50 | 3:10.00 | 35675 | 49924
4 | 11:05.50 | 3:36.30 | 49925 | 66154
5 | 14:42.05 | 2:04.15 | 66155 | 75469
6 | 16:46.20 | 2:01.05 | 75470 | 84549
7 | 18:47.25 | 3:05.37 | 84550 | 98461
8 | 21:52.62 | 4:06.30 | 98462 | 116941
9 | 25:59.17 | 2:44.60 | 116942 | 129301
10 | 28:44.02 | 2:50.40 | 129302 | 142091
11 | 31:34.42 | 3:35.73 | 142092 | 158289
12 | 35:10.40 | 3:42.35 | 158290 | 174974
Range status and errors
Selected range
Filename C:\_\EAC_Out\Out\Eta Jones - So Warm\Eta Jones - So Warm.wav
Peak level 100.0 %
Range quality 100.0 %
Copy CRC AD99F623
Copy OK
No errors occurred
AccurateRip summary
Track 1 not present in database
Track 2 not present in database
Track 3 not present in database
Track 4 not present in database
Track 5 not present in database
Track 6 not present in database
Track 7 not present in database
Track 8 not present in database
Track 9 not present in database
Track 10 not present in database
Track 11 not present in database
Track 12 not present in database
None of the tracks are present in the AccurateRip database
End of status report
    Мои раздачи на трекере
Any questions - support@pro-jazz.com. Есть вопросы - support@pro-jazz.com
17:18
344
Нет комментариев. Ваш будет первым!