Поиск

(Vocal Jazz, World, Latin, Cuban) VA - Putumayo Presents - Jazz Around The World - 2009, FLAC (tracks+.cue), lossless

Треклист:
VA - Putumayo Presents - Jazz Around The World
Жанр: Vocal Jazz, World, Latin, Cuban
Год выпуска диска: 2009
Аудио кодек: FLAC
Тип рипа: tracks+.cue
Битрейт аудио: lossless
Продолжительность: 0:38:34
Треклист:
01. Chantal Chamberland - La Mer (3:50)
02. Niuver - Quiereme Mucho (4:05)
03. Blick Bassy - Donalina (4:11)
04. Kora Jazz Trio - Chan Chan (4:45)
05. Heather Rigdon - Young And Naive (2:50)
06. Kad - J'aime Mon Lit (3:21)
07. Sherele - Polka Dot Blues (2:20)
08. Kataraina Pipi - Te Reo O Papatuanuku (2:11)
09. Keletigui Diabate - Summertime At Bambako (3:29)
10. Billy Cobham And Asere - Destinos (6:11)
11. Hugh Masekela With Malaika - Open The Door (5:11)
 
XLD log
X Lossless Decoder version 20100711 (120.5)
XLD extraction logfile from 2010-07-22 10:53:55 -0400
Various Artists / Putumayo Presents Jazz Around The World
Used drive : MATSHITA DVD-R UJ-857D (revision KBVB)
Use cdparanoia mode : YES (CDParanoia III 10.2 engine)
Disable audio cache : OK for the drive with cache less than 2750KB
Make use of C2 pointers : NO
Read offset correction : 102
Max retry count : 100
Gap status : Analyzed, Appended
TOC of the extracted CD
Track | Start | Length | Start sector | End sector
---------------------------------------------------------
1 | 00:00:01 | 03:50:26 | 1 | 17276
2 | 03:50:27 | 04:05:14 | 17277 | 35665
3 | 07:55:41 | 04:11:26 | 35666 | 54516
4 | 12:06:67 | 04:44:66 | 54517 | 75882
5 | 16:51:58 | 02:49:72 | 75883 | 88629
6 | 19:41:55 | 03:21:16 | 88630 | 103720
7 | 23:02:71 | 02:20:21 | 103721 | 114241
8 | 25:23:17 | 02:10:52 | 114242 | 124043
9 | 27:33:69 | 03:29:03 | 124044 | 139721
10 | 31:02:72 | 06:10:42 | 139722 | 167513
11 | 37:13:39 | 05:10:73 | 167514 | 190836
All Tracks
Album gain : -2.65 dB
Peak : 1.000000
Track 01
Filename : /Temp/Various 2009 Jazz Around The World FLAC/01 - Chantal Chamberland - La Mer.flac
Pre-gap length : 00:02:01
Track gain : -3.60 dB
Peak : 0.896210
CRC32 hash (test run) : 8D96AC30
CRC32 hash : 8D96AC30
CRC32 hash (skip zero) : 741A8E90
AccurateRip signature : E23FB41E
->Accurately ripped! (confidence 4)
Statistics
Read error : 0
Skipped (treated as error) : 0
Edge jitter error (maybe fixed) : 0
Atom jitter error (maybe fixed) : 0
Drift error (maybe fixed) : 0
Dropped bytes error (maybe fixed) : 0
Duplicated bytes error (maybe fixed) : 0
Inconsistency in error sectors : 0
Track 02
Filename : /Temp/Various 2009 Jazz Around The World FLAC/02 - Niuver - Quiereme Mucho.flac
Track gain : -3.69 dB
Peak : 0.916077
CRC32 hash (test run) : A67FBC7A
CRC32 hash : A67FBC7A
CRC32 hash (skip zero) : 07E5429C
AccurateRip signature : 3F1A3F31
->Accurately ripped! (confidence 4)
Statistics
Read error : 0
Skipped (treated as error) : 0
Edge jitter error (maybe fixed) : 0
Atom jitter error (maybe fixed) : 0
Drift error (maybe fixed) : 0
Dropped bytes error (maybe fixed) : 0
Duplicated bytes error (maybe fixed) : 0
Inconsistency in error sectors : 0
Track 03
Filename : /Temp/Various 2009 Jazz Around The World FLAC/03 - Blick Bassy - Donalina.flac
Track gain : -2.95 dB
Peak : 0.841858
CRC32 hash (test run) : 966BC314
CRC32 hash : 966BC314
CRC32 hash (skip zero) : D7C4C9B9
AccurateRip signature : F162007F
->Accurately ripped! (confidence 4)
Statistics
Read error : 0
Skipped (treated as error) : 0
Edge jitter error (maybe fixed) : 0
Atom jitter error (maybe fixed) : 0
Drift error (maybe fixed) : 0
Dropped bytes error (maybe fixed) : 0
Duplicated bytes error (maybe fixed) : 0
Inconsistency in error sectors : 0
Track 04
Filename : /Temp/Various 2009 Jazz Around The World FLAC/04 - Kora Jazz Trio - Chan Chan.flac
Track gain : -2.13 dB
Peak : 0.714142
CRC32 hash (test run) : 13BA9FE5
CRC32 hash : 13BA9FE5
CRC32 hash (skip zero) : 7741FAEF
AccurateRip signature : CD0AEA8E
->Accurately ripped! (confidence 4)
Statistics
Read error : 0
Skipped (treated as error) : 0
Edge jitter error (maybe fixed) : 0
Atom jitter error (maybe fixed) : 0
Drift error (maybe fixed) : 0
Dropped bytes error (maybe fixed) : 0
Duplicated bytes error (maybe fixed) : 0
Inconsistency in error sectors : 0
Track 05
Filename : /Temp/Various 2009 Jazz Around The World FLAC/05 - Heather Rigdon - Young And Naive.flac
Track gain : -2.74 dB
Peak : 0.889740
CRC32 hash (test run) : 054794E8
CRC32 hash : 054794E8
CRC32 hash (skip zero) : 65883B1D
AccurateRip signature : 4C93715D
->Accurately ripped! (confidence 4)
Statistics
Read error : 0
Skipped (treated as error) : 0
Edge jitter error (maybe fixed) : 0
Atom jitter error (maybe fixed) : 0
Drift error (maybe fixed) : 0
Dropped bytes error (maybe fixed) : 0
Duplicated bytes error (maybe fixed) : 0
Inconsistency in error sectors : 0
Track 06
Filename : /Temp/Various 2009 Jazz Around The World FLAC/06 - Kad - J'aime Mon Lit.flac
Track gain : -0.62 dB
Peak : 0.794312
CRC32 hash (test run) : DFDD443C
CRC32 hash : DFDD443C
CRC32 hash (skip zero) : 2422667F
AccurateRip signature : 0897850D
->Accurately ripped! (confidence 4)
Statistics
Read error : 0
Skipped (treated as error) : 0
Edge jitter error (maybe fixed) : 0
Atom jitter error (maybe fixed) : 0
Drift error (maybe fixed) : 0
Dropped bytes error (maybe fixed) : 0
Duplicated bytes error (maybe fixed) : 0
Inconsistency in error sectors : 0
Track 07
Filename : /Temp/Various 2009 Jazz Around The World FLAC/07 - Sherele - Polka Dot Blues.flac
Track gain : -3.46 dB
Peak : 0.937988
CRC32 hash (test run) : 56D82198
CRC32 hash : 56D82198
CRC32 hash (skip zero) : 6DEAFE40
AccurateRip signature : E27ED2E3
->Accurately ripped! (confidence 4)
Statistics
Read error : 0
Skipped (treated as error) : 0
Edge jitter error (maybe fixed) : 0
Atom jitter error (maybe fixed) : 0
Drift error (maybe fixed) : 0
Dropped bytes error (maybe fixed) : 0
Duplicated bytes error (maybe fixed) : 0
Inconsistency in error sectors : 0
Track 08
Filename : /Temp/Various 2009 Jazz Around The World FLAC/08 - Kataraina Pipi - Te Reo O Papatuanuku.flac
Track gain : -1.68 dB
Peak : 0.817932
CRC32 hash (test run) : A380F6B5
CRC32 hash : A380F6B5
CRC32 hash (skip zero) : 7359E23C
AccurateRip signature : E6AE835D
->Accurately ripped! (confidence 4)
Statistics
Read error : 0
Skipped (treated as error) : 0
Edge jitter error (maybe fixed) : 0
Atom jitter error (maybe fixed) : 0
Drift error (maybe fixed) : 0
Dropped bytes error (maybe fixed) : 0
Duplicated bytes error (maybe fixed) : 0
Inconsistency in error sectors : 0
Track 09
Filename : /Temp/Various 2009 Jazz Around The World FLAC/09 - Keletigui Diabate - Summertime At Bambako.flac
Track gain : -1.42 dB
Peak : 0.647797
CRC32 hash (test run) : 68641EF5
CRC32 hash : 68641EF5
CRC32 hash (skip zero) : E535D033
AccurateRip signature : 038E046B
->Accurately ripped! (confidence 4)
Statistics
Read error : 0
Skipped (treated as error) : 0
Edge jitter error (maybe fixed) : 0
Atom jitter error (maybe fixed) : 0
Drift error (maybe fixed) : 0
Dropped bytes error (maybe fixed) : 0
Duplicated bytes error (maybe fixed) : 0
Inconsistency in error sectors : 0
Track 10
Filename : /Temp/Various 2009 Jazz Around The World FLAC/10 - Billy Cobham And Asere - Destinos.flac
Track gain : -1.12 dB
Peak : 0.999969
CRC32 hash (test run) : 81D4784B
CRC32 hash : 81D4784B
CRC32 hash (skip zero) : 6D9B5305
AccurateRip signature : 36DA10BD
->Accurately ripped! (confidence 4)
Statistics
Read error : 0
Skipped (treated as error) : 0
Edge jitter error (maybe fixed) : 0
Atom jitter error (maybe fixed) : 0
Drift error (maybe fixed) : 0
Dropped bytes error (maybe fixed) : 0
Duplicated bytes error (maybe fixed) : 0
Inconsistency in error sectors : 0
Track 11
Filename : /Temp/Various 2009 Jazz Around The World FLAC/11 - Hugh Masekela With Malaika - Open The Door.flac
Track gain : -3.26 dB
Peak : 1.000000
CRC32 hash (test run) : 70917D01
CRC32 hash : 70917D01
CRC32 hash (skip zero) : 734FBF7B
AccurateRip signature : 417E9046
->Accurately ripped! (confidence 4)
Statistics
Read error : 0
Skipped (treated as error) : 0
Edge jitter error (maybe fixed) : 0
Atom jitter error (maybe fixed) : 0
Drift error (maybe fixed) : 0
Dropped bytes error (maybe fixed) : 0
Duplicated bytes error (maybe fixed) : 0
Inconsistency in error sectors : 0
No errors occurred
End of status report
 
auCDtect's log
-----------------------
DON'T MODIFY THIS FILE
-----------------------
PERFORMER: auCDtect Task Manager, ver. 1.5.1RC3 build 1.5.1.4
Copyright (c) 2008-2010 y-soft. All rights reserved
http://y-soft.org
ANALYZER: auCDtect: CD records authenticity detector, version 0.8.2
Copyright (c) 2004 Oleg Berngardt. All rights reserved.
Copyright (c) 2004 Alexander Djourik. All rights reserved.
FILE: 11 - Hugh Masekela With Malaika - Open The Door.flac
Size: 34941621 Hash: 337FCD2244531B70DFF392D1A4EDC826 Accuracy: -m0
Conclusion: CDDA 100%
Signature: B5F88FA56A99AF5079303B3EBA9AF62451F66009
FILE: 10 - Billy Cobham And Asere - Destinos.flac
Size: 39518751 Hash: 5A759E96DEBF05405ACC9C7FEAA0ED92 Accuracy: -m0
Conclusion: CDDA 100%
Signature: C3DFFC4FC0C41D9A1DF1A69551F546AA6482BF99
FILE: 09 - Keletigui Diabate - Summertime At Bambako.flac
Size: 20859330 Hash: 09A131C17A2469F11AFBF464C4789CEA Accuracy: -m0
Conclusion: CDDA 100%
Signature: AF475348463FB45E4623A5A2E98812E8D38304A2
FILE: 08 - Kataraina Pipi - Te Reo O Papatuanuku.flac
Size: 12754008 Hash: 27CA0AF8CD4140E9F6FA08AA3B1A19EF Accuracy: -m0
Conclusion: CDDA 100%
Signature: D6785C8507D7583B449AA9163105A74F33A89E70
FILE: 07 - Sherele - Polka Dot Blues.flac
Size: 12367202 Hash: 62083D78B82BF2A949FFBFBE5FFA7CF4 Accuracy: -m0
Conclusion: MPEG 95%
Signature: 695D7EC8D7F75A8513FCBCB1B314B8830B3B742F
FILE: 06 - Kad - J'aime Mon Lit.flac
Size: 19608048 Hash: 78B49C2E28C109D504687935979C039B Accuracy: -m0
Conclusion: CDDA 100%
Signature: 11CAE640711B769CC1780878AD4950ABB97D33DF
FILE: 05 - Heather Rigdon - Young And Naive.flac
Size: 17794157 Hash: 42C8D0C45D94F10A8717A0C839D43D45 Accuracy: -m0
Conclusion: CDDA 100%
Signature: 6EC97B9E1307EBA4ADEE1AE6C3E29C05581E7779
FILE: 04 - Kora Jazz Trio - Chan Chan.flac
Size: 26152438 Hash: 20DF4F321C67579832B6A9367D4359C9 Accuracy: -m0
Conclusion: CDDA 100%
Signature: 38565D00D951BD14B15AF73DA33199FC24B546D0
FILE: 03 - Blick Bassy - Donalina.flac
Size: 22755140 Hash: 708F61E693A4EA34D5555F97C7E57414 Accuracy: -m0
Conclusion: CDDA 100%
Signature: 4382293EC353D533EF7A360218F6033AF45021ED
FILE: 02 - Niuver - Quiereme Mucho.flac
Size: 22864176 Hash: 83CED46D180AD3895D15DB9A2D81495E Accuracy: -m0
Conclusion: CDDA 100%
Signature: FB2678E5E399E6C52426CFD6F510D4109B9DD51E
FILE: 01 - Chantal Chamberland - La Mer.flac
Size: 23302634 Hash: 89B83247DD4FFE1B045B21F42B2AC1FE Accuracy: -m0
Conclusion: CDDA 100%
Signature: 4ED4DCA45FEB755B2093FE05A680F6C60ADBE958
 
.cue
TITLE "Putumayo Presents Jazz Around The World"
REM GENRE "Jazz"
REM DATE 2009
REM DISCNUMBER 1
REM TOTALDISCS 1
REM DISCID 8B09F00B
FILE "01 - Chantal Chamberland - La Mer.wav" WAVE
TRACK 01 AUDIO
TITLE "La Mer"
PERFORMER "Chantal Chamberland"
INDEX 00 00:00:00
INDEX 01 00:00:01
FILE "02 - Niuver - Quiereme Mucho.wav" WAVE
TRACK 02 AUDIO
TITLE "Quiereme Mucho"
PERFORMER "Niuver"
INDEX 01 00:00:00
FILE "03 - Blick Bassy - Donalina.wav" WAVE
TRACK 03 AUDIO
TITLE "Donalina"
PERFORMER "Blick Bassy"
INDEX 01 00:00:00
FILE "04 - Kora Jazz Trio - Chan Chan.wav" WAVE
TRACK 04 AUDIO
TITLE "Chan Chan"
PERFORMER "Kora Jazz Trio"
INDEX 01 00:00:00
FILE "05 - Heather Rigdon - Young And Naive.wav" WAVE
TRACK 05 AUDIO
TITLE "Young And Naive"
PERFORMER "Heather Rigdon"
INDEX 01 00:00:00
FILE "06 - Kad - J'aime Mon Lit.wav" WAVE
TRACK 06 AUDIO
TITLE "J'aime Mon Lit"
PERFORMER "Kad"
INDEX 01 00:00:00
FILE "07 - Sherele - Polka Dot Blues.wav" WAVE
TRACK 07 AUDIO
TITLE "Polka Dot Blues"
PERFORMER "Sherele"
INDEX 01 00:00:00
FILE "08 - Kataraina Pipi - Te Reo O Papatuanuku.wav" WAVE
TRACK 08 AUDIO
TITLE "Te Reo O Papatuanuku"
PERFORMER "Kataraina Pipi"
INDEX 01 00:00:00
FILE "09 - Keletigui Diabate - Summertime At Bambako.wav" WAVE
TRACK 09 AUDIO
TITLE "Summertime At Bambako"
PERFORMER "Keletigui Diabate"
INDEX 01 00:00:00
FILE "10 - Billy Cobham And Asere - Destinos.wav" WAVE
TRACK 10 AUDIO
TITLE "Destinos"
PERFORMER "Billy Cobham And Asere"
INDEX 01 00:00:00
FILE "11 - Hugh Masekela With Malaika - Open The Door.wav" WAVE
TRACK 11 AUDIO
TITLE "Open The Door"
PERFORMER "Hugh Masekela With Malaika"
INDEX 01 00:00:00
 
Review (english)
The fascinating global journey of jazz is one of music’s most remarkable stories. Putumayo’s newest release, Jazz Around the World, showcases the powerful influence of jazz on musicians across the globe. Featuring both well established and newer artists performing extraordinary covers and originals, this collection incorporates a wide range of rhythms, instruments and melodies into a constantly evolving genre. With ancestral roots in Africa, jazz flowered into a dynamic force in the United States throughout the 20th century. And, over the years, it has borrowed from, influenced and blended with musical traditions around the world.
Доп. информация:
Источник - другой трекер. Сканов нет. Релизер - robo8080.
16:02
297
Нет комментариев. Ваш будет первым!