Поиск

(Instrumental, Blues, Jazz-Rock) Emilio Garcia - Ultrablues - 2005, FLAC (tracks+.cue), lossless

Треклист:
Emilio Garcia - Ultrablues
Жанр: Instrumental, Blues, Jazz-Rock
Год выпуска диска: 2005
Производитель диска: Chile
Аудио кодек: FLAC
Тип рипа: tracks+.cue
Битрейт аудио: lossless
Продолжительность: 0:51:41
Треклист:
01.Ultrablues
02.El Twist de la Marmota
03.Lila
04.Fanqui
05.Ablusions
06.Reblues
07.Songo
08.Suenos
09.Vals Para Chile
10.De Los Angeles
11.Playa del Carmen
Источник: Avax Home
Доп. информация:
 
EAC
Exact Audio Copy V0.99 prebeta 4 from 23. January 2008
EAC extraction logfile from 15. January 2010, 11:37
Emilio Garcia / Ultrablues
Used drive : HL-DT-STDVDRAM GH20NS10 Adapter: 1 ID: 0
Read mode : Secure
Utilize accurate stream : Yes
Defeat audio cache : Yes
Make use of C2 pointers : No
Read offset correction : 667
Overread into Lead-In and Lead-Out : No
Fill up missing offset samples with silence : Yes
Delete leading and trailing silent blocks : No
Null samples used in CRC calculations : Yes
Used interface : Native Win32 interface for Win NT & 2000
Gap handling : Appended to previous track
Used output format : User Defined Encoder
Selected bitrate : 1024 kBit/s
Quality : High
Add ID3 tag : No
Command line compressor : C:\Program Files\Exact Audio Copy\FLAC\FLAC.EXE
Additional command line options : -6 -V -T "ARTIST=%a" -T "TITLE=%t" -T "ALBUM=%g" -T "DATE=%y" -T "TRACKNUMBER=%n" -T "GENRE=%m" -T "COMMENT=%e" %s -o %d
TOC of the extracted CD
Track | Start | Length | Start sector | End sector
---------------------------------------------------------
1 | 0:00.00 | 5:16.38 | 0 | 23737
2 | 5:16.38 | 4:24.46 | 23738 | 43583
3 | 9:41.09 | 7:45.14 | 43584 | 78472
4 | 17:26.23 | 3:54.00 | 78473 | 96022
5 | 21:20.23 | 2:33.55 | 96023 | 107552
6 | 23:54.03 | 3:00.40 | 107553 | 121092
7 | 26:54.43 | 4:10.48 | 121093 | 139890
8 | 31:05.16 | 6:21.25 | 139891 | 168490
9 | 37:26.41 | 4:49.33 | 168491 | 190198
10 | 42:15.74 | 3:57.24 | 190199 | 207997
11 | 46:13.23 | 5:32.56 | 207998 | 232953
Track 1
Filename E:\Temp\Emilio Garcia\Ultrablues\01 - Ultrablues.wav
Pre-gap length 0:00:02.00
Peak level 99.2 %
Track quality 100.0 %
Copy CRC 08E2958B
Track not present in AccurateRip database
Copy OK
Track 2
Filename E:\Temp\Emilio Garcia\Ultrablues\02 - el twist de la marmota.wav
Peak level 99.9 %
Track quality 100.0 %
Copy CRC 03EFCE7B
Track not present in AccurateRip database
Copy OK
Track 3
Filename E:\Temp\Emilio Garcia\Ultrablues\03 - lila.wav
Peak level 98.8 %
Track quality 100.0 %
Copy CRC 872617F0
Track not present in AccurateRip database
Copy OK
Track 4
Filename E:\Temp\Emilio Garcia\Ultrablues\04 - fanqui.wav
Peak level 99.7 %
Track quality 100.0 %
Copy CRC 1E9D45E2
Track not present in AccurateRip database
Copy OK
Track 5
Filename E:\Temp\Emilio Garcia\Ultrablues\05 - ablusiones.wav
Peak level 86.5 %
Track quality 99.9 %
Copy CRC EDDB2820
Track not present in AccurateRip database
Copy OK
Track 6
Filename E:\Temp\Emilio Garcia\Ultrablues\06 - reblues.wav
Peak level 79.1 %
Track quality 100.0 %
Copy CRC 1D3F5888
Track not present in AccurateRip database
Copy OK
Track 7
Filename E:\Temp\Emilio Garcia\Ultrablues\07 - Sengo.wav
Peak level 98.6 %
Track quality 100.0 %
Copy CRC B977A7E4
Track not present in AccurateRip database
Copy OK
Track 8
Filename E:\Temp\Emilio Garcia\Ultrablues\08 - sueсos.wav
Peak level 98.7 %
Track quality 100.0 %
Copy CRC 52BA48FE
Track not present in AccurateRip database
Copy OK
Track 9
Filename E:\Temp\Emilio Garcia\Ultrablues\09 - vals para chile.wav
Peak level 98.8 %
Track quality 100.0 %
Copy CRC 3409BD96
Track not present in AccurateRip database
Copy OK
Track 10
Filename E:\Temp\Emilio Garcia\Ultrablues\10 - de los angeles.wav
Peak level 83.6 %
Track quality 100.0 %
Copy CRC 2BF69A98
Track not present in AccurateRip database
Copy OK
Track 11
Filename E:\Temp\Emilio Garcia\Ultrablues\11 - playa del carmen.wav
Peak level 98.7 %
Track quality 99.9 %
Copy CRC 93C4415B
Track not present in AccurateRip database
Copy OK
None of the tracks are present in the AccurateRip database
No errors occurred
End of status report
16:03
260
Нет комментариев. Ваш будет первым!