Поиск

(Latin-Jazz) Neil Angilley - Havana Club - 2007, APE (image+.cue), lossless

Треклист:
Neil Angilley - Havana Club
Жанр: Latin-Jazz
Год выпуска диска: 2007
Производитель диска: Arision/Groove
Аудио кодек: APE
Тип рипа: image+.cue
Битрейт аудио: lossless
Продолжительность: 0:39:09
Треклист:
01. Havana Club (5:28)
02. Pequenita (5:47)
03. Marcha De Los Ratones (5:30)
04. Figarilla (3:53)
05. What's Up! (5:52)
06. Fruta Madura (9:07)
07. Chapas Voladas (3:32)
Neil Angilley - stairway piano, accordion
Nico Gomez - bass
Davide Giovannini - drums, vocals
Snowboy - percussion
Richard Milone - violin
За релиз спасибо MICA-TONE
.
 
EAC Log
Exact Audio Copy V0.99 prebeta 3 from 28. July 2007
Отчёт EAC об извлечении, выполненном 23. июля 2010, 11:07
Angilley / Havana Club
Дисковод: Optiarc DVD RW AD-7560A Adapter: 0 ID: 0
Режим чтения : Достоверность
Использование точного потока : Да
Отключение кэша аудио : Да
Использование указателей C2 : Нет
Коррекция смещения при чтении : 6
Способность читать области Lead-in и Lead-out : Нет
Заполнение пропущенных сэмплов тишиной : Да
Удаление блоков с тишиной в начале и конце : Нет
При вычислениях CRC использовались нулевые сэмплы : Да
Интерфейс : Встроенный Win32-интерфейс для Win NT/2000
Выходной формат : Внутренние WAV-операции
Формат сэмплов : 44.100 Гц; 16 бит; стерео
TOC извлечённого CD
Трек | Старт | Длительность | Начальный сектор | Конечный сектор
---------------------------------------------------------------------
1 | 0:00.00 | 5:27.73 | 0 | 24597
2 | 5:27.73 | 5:47.24 | 24598 | 50646
3 | 11:15.22 | 5:30.27 | 50647 | 75423
4 | 16:45.49 | 3:52.38 | 75424 | 92861
5 | 20:38.12 | 5:52.12 | 92862 | 119273
6 | 26:30.24 | 9:06.62 | 119274 | 160285
7 | 35:37.11 | 3:31.38 | 160286 | 176148
Характеристики диапазона извлечения и сообщения об ошибках
Выбранный диапазон
Имя файла C:\Users\Александр\Desktop\havana\Angilley - Havana Club.wav
Пиковый уровень 98.7 %
Качество диапазона 100.0 %
CRC копии 3D41B68B
Копирование... OK
Ошибок не произошло
AccurateRip: сводка
Трек 1 нет в базе данных
Трек 2 нет в базе данных
Трек 3 нет в базе данных
Трек 4 нет в базе данных
Трек 5 нет в базе данных
Трек 6 нет в базе данных
Трек 7 нет в базе данных
Ни одного трека нет в базе AccurateRip
Конец отчёта
17:04
296
Нет комментариев. Ваш будет первым!