Поиск

(Brazilian, Bossa Nova, Instrumental) Joao Donato - Piano of Joao Donato: The New Sound of Brazil (1965) - 2001, FLAC (tracks+.cue), lossless

Треклист:
João Donato
Piano of João Donato: The New Sound of Brazil (1965)

Жанр: Brazilian, Bossa Nova, Instrumental | Страна: Brazil
Дата выпуска альбома / диска: 1965 / 2001 | Производитель диска: Sony BMG (c) Brazil
Аудио кодек: FLAC | Тип рипа: tracks+.cue | Битрейт аудио: lossless
Формат: Studio Album
Продолжительность: 30:03


Tracklist:
01. Amazon (Amazonas) (2:31)
02. Coisas Distantes (2:13)
03. O Barquinho (2:27)
04. Manhã de Carnaval (3:08)
05. Esperança Perdida (2:07)
06. And Roses And Roses (2:32)
07. Flor do Mato (2:41)
08. Vento do Carnaval (2:29)
09. Insensatez (2:51)
10. Samba de Orpheu (2:41)
11. No Coreto (2:00)
12. Nao Se Acabou(2:23)


Personnel:
Joao Donato - piano, Richard Davis - bass, Bill Goodwin - drums, Dom Um Romao - drums, percussion, Luiz Bonfa - violao, Carlos Lyra - violao, Jerome Richardson - flute, Jimmy Cleveland - trombone


 
EAC log
Exact Audio Copy V0.99 prebeta 5 from 4. May 2009
EAC extraction logfile from 31. October 2009, 17:53
Joao Donato / The New Sound of Brazil
Used drive : TDK CDRW5200B Adapter: 1 ID: 1
Read mode : Secure
Utilize accurate stream : Yes
Defeat audio cache : Yes
Make use of C2 pointers : No
Read offset correction : 6
Overread into Lead-In and Lead-Out : No
Fill up missing offset samples with silence : Yes
Delete leading and trailing silent blocks : No
Null samples used in CRC calculations : Yes
Used interface : Native Win32 interface for Win NT & 2000
Gap handling : Appended to previous track
Used output format : User Defined Encoder
Selected bitrate : 768 kBit/s
Quality : High
Add ID3 tag : No
Command line compressor : C:\Program Files\Exact Audio Copy\FLAC\FLAC.EXE
Additional command line options : -8 -V -T "ARTIST=%a" -T "TITLE=%t" -T "ALBUM=%g" -T "DATE=%y"
-T "TRACKNUMBER=%n" -T "TOTALTRACKS=%x" -T "GENRE=%m" -T "ALBUM ARTIST=%v" -T
"ALBUMARTIST=%v" -T "COMMENT=EAC V0.99 prebeta 4, Secure Mode, Test & Copy, Accurat
TOC of the extracted CD
Track | Start | Length | Start sector | End sector
---------------------------------------------------------
1 | 0:00.00 | 2:31.48 | 0 | 11372
2 | 2:31.48 | 2:13.38 | 11373 | 21385
3 | 4:45.11 | 2:27.35 | 21386 | 32445
4 | 7:12.46 | 3:08.57 | 32446 | 46602
5 | 10:21.28 | 2:07.50 | 46603 | 56177
6 | 12:29.03 | 2:32.14 | 56178 | 67591
7 | 15:01.17 | 2:41.38 | 67592 | 79704
8 | 17:42.55 | 2:29.39 | 79705 | 90918
9 | 20:12.19 | 2:51.68 | 90919 | 103811
10 | 23:04.12 | 2:41.53 | 103812 | 115939
11 | 25:45.65 | 2:00.25 | 115940 | 124964
12 | 27:46.15 | 2:23.57 | 124965 | 135746
Track 1
Filename C:\EAC\01 - Amazonas.wav
Pre-gap length 0:00:02.00
Peak level 96.5 %
Track quality 100.0 %
Test CRC 7473FD9E
Copy CRC 7473FD9E
Track not present in AccurateRip database
Copy OK
Track 2
Filename C:\EAC\02 - Coisas Distantes.wav
Pre-gap length 0:00:01.58
Peak level 96.5 %
Track quality 100.0 %
Test CRC 2608732A
Copy CRC 2608732A
Track not present in AccurateRip database
Copy OK
Track 3
Filename C:\EAC\03 - O Barquinho.wav
Pre-gap length 0:00:01.60
Peak level 96.5 %
Track quality 100.0 %
Test CRC A4980AF9
Copy CRC A4980AF9
Track not present in AccurateRip database
Copy OK
Track 4
Filename C:\EAC\04 - Manha de Carnaval.wav
Pre-gap length 0:00:01.60
Peak level 96.5 %
Track quality 100.0 %
Test CRC 17D76C9C
Copy CRC 17D76C9C
Track not present in AccurateRip database
Copy OK
Track 5
Filename C:\EAC\05 - Esperanca Perdida.wav
Pre-gap length 0:00:01.62
Peak level 96.5 %
Track quality 100.0 %
Test CRC C204042D
Copy CRC C204042D
Track not present in AccurateRip database
Copy OK
Track 6
Filename C:\EAC\06 - And Roses And Roses.wav
Pre-gap length 0:00:01.42
Peak level 96.5 %
Track quality 100.0 %
Test CRC C60BE4DE
Copy CRC C60BE4DE
Track not present in AccurateRip database
Copy OK
Track 7
Filename C:\EAC\07 - Flor do Mato.wav
Pre-gap length 0:00:01.48
Peak level 96.5 %
Track quality 100.0 %
Test CRC BC4F968E
Copy CRC BC4F968E
Track not present in AccurateRip database
Copy OK
Track 8
Filename C:\EAC\08 - Vento do Carnaval.wav
Pre-gap length 0:00:01.65
Peak level 96.5 %
Track quality 100.0 %
Test CRC B9313CA9
Copy CRC B9313CA9
Track not present in AccurateRip database
Copy OK
Track 9
Filename C:\EAC\09 - Insensatez.wav
Pre-gap length 0:00:01.64
Peak level 96.5 %
Track quality 100.0 %
Test CRC 5A7EB5AF
Copy CRC 5A7EB5AF
Track not present in AccurateRip database
Copy OK
Track 10
Filename C:\EAC\10 - Samba de Orpheu.wav
Pre-gap length 0:00:01.65
Peak level 96.5 %
Track quality 99.9 %
Test CRC 46E586F9
Copy CRC 46E586F9
Track not present in AccurateRip database
Copy OK
Track 11
Filename C:\EAC\11 - No Coreto.wav
Pre-gap length 0:00:01.61
Peak level 96.5 %
Track quality 100.0 %
Test CRC 81C1439C
Copy CRC 81C1439C
Track not present in AccurateRip database
Copy OK
Track 12
Filename C:\EAC\12 - Nao Se Acabou.wav
Pre-gap length 0:00:01.41
Peak level 96.5 %
Track quality 100.0 %
Test CRC 69122C75
Copy CRC 69122C75
Track not present in AccurateRip database
Copy OK
None of the tracks are present in the AccurateRip database
No errors occurred
End of status report
 
*.cue
REM GENRE "Bossa Nova"
REM DATE 1965
REM DISCID 9607110C
REM COMMENT "ExactAudioCopy v0.99pb5"
PERFORMER "Joao Donato"
TITLE "The New Sound of Brazil"
FILE "01 - Amazonas.wav" WAVE
TRACK 01 AUDIO
TITLE "Amazonas"
PERFORMER "Joao Donato"
INDEX 01 00:00:00
TRACK 02 AUDIO
TITLE "Coisas Distantes"
PERFORMER "Joao Donato"
INDEX 00 02:30:04
FILE "02 - Coisas Distantes.wav" WAVE
INDEX 01 00:00:00
TRACK 03 AUDIO
TITLE "O Barquinho"
PERFORMER "Joao Donato"
INDEX 00 02:11:68
FILE "03 - O Barquinho.wav" WAVE
INDEX 01 00:00:00
TRACK 04 AUDIO
TITLE "Manha de Carnaval"
PERFORMER "Joao Donato"
INDEX 00 02:25:65
FILE "04 - Manha de Carnaval.wav" WAVE
INDEX 01 00:00:00
TRACK 05 AUDIO
TITLE "Esperanca Perdida"
PERFORMER "Joao Donato"
INDEX 00 03:07:10
FILE "05 - Esperanca Perdida.wav" WAVE
INDEX 01 00:00:00
TRACK 06 AUDIO
TITLE "And Roses And Roses"
PERFORMER "Joao Donato"
INDEX 00 02:06:18
FILE "06 - And Roses And Roses.wav" WAVE
INDEX 01 00:00:00
TRACK 07 AUDIO
TITLE "Flor do Mato"
PERFORMER "Joao Donato"
INDEX 00 02:30:53
FILE "07 - Flor do Mato.wav" WAVE
INDEX 01 00:00:00
TRACK 08 AUDIO
TITLE "Vento do Carnaval"
PERFORMER "Joao Donato"
INDEX 00 02:39:64
FILE "08 - Vento do Carnaval.wav" WAVE
INDEX 01 00:00:00
TRACK 09 AUDIO
TITLE "Insensatez"
PERFORMER "Joao Donato"
INDEX 00 02:27:66
FILE "09 - Insensatez.wav" WAVE
INDEX 01 00:00:00
TRACK 10 AUDIO
TITLE "Samba de Orpheu"
PERFORMER "Joao Donato"
INDEX 00 02:50:19
FILE "10 - Samba de Orpheu.wav" WAVE
INDEX 01 00:00:00
TRACK 11 AUDIO
TITLE "No Coreto"
PERFORMER "Joao Donato"
INDEX 00 02:40:07
FILE "11 - No Coreto.wav" WAVE
INDEX 01 00:00:00
TRACK 12 AUDIO
TITLE "Nao Se Acabou"
PERFORMER "Joao Donato"
INDEX 00 01:58:69
FILE "12 - Nao Se Acabou.wav" WAVE
INDEX 01 00:00:00
 
Audiochecker’s log
AUDIOCHECKER v2.0 beta (build 457) - by Dester - opdester@freemail.hu
~~~~~~~~~~~~~~~~~~~~~~~~~~~~~~~~~~
Started at: суббота, 17. 04. 2010. - 19:15.18
12 files found
01 -===- F:\Joao Donato - The New Sound of Brazil (1965) [flac]\01 - Amazonas.flac
Extracted successfully
Conclusion: this track is CDDA with probability 100%
Tempfile successfully deleted.
02 -===- F:\Joao Donato - The New Sound of Brazil (1965) [flac]\02 - Coisas Distantes.flac
Extracted successfully
Conclusion: this track is CDDA with probability 99%
Tempfile successfully deleted.
03 -===- F:\Joao Donato - The New Sound of Brazil (1965) [flac]\03 - O Barquinho.flac
Extracted successfully
Conclusion: this track is CDDA with probability 100%
Tempfile successfully deleted.
04 -===- F:\Joao Donato - The New Sound of Brazil (1965) [flac]\04 - Manha de Carnaval.flac
Extracted successfully
Conclusion: this track is CDDA with probability 100%
Tempfile successfully deleted.
05 -===- F:\Joao Donato - The New Sound of Brazil (1965) [flac]\05 - Esperanca Perdida.flac
Extracted successfully
Conclusion: this track is CDDA with probability 100%
Tempfile successfully deleted.
06 -===- F:\Joao Donato - The New Sound of Brazil (1965) [flac]\06 - And Roses And Roses.flac
Extracted successfully
Conclusion: this track is CDDA with probability 99%
Tempfile successfully deleted.
07 -===- F:\Joao Donato - The New Sound of Brazil (1965) [flac]\07 - Flor do Mato.flac
Extracted successfully
Conclusion: this track is CDDA with probability 100%
Tempfile successfully deleted.
08 -===- F:\Joao Donato - The New Sound of Brazil (1965) [flac]\08 - Vento do Carnaval.flac
Extracted successfully
Conclusion: this track is CDDA with probability 100%
Tempfile successfully deleted.
09 -===- F:\Joao Donato - The New Sound of Brazil (1965) [flac]\09 - Insensatez.flac
Extracted successfully
Conclusion: this track is CDDA with probability 100%
Tempfile successfully deleted.
10 -===- F:\Joao Donato - The New Sound of Brazil (1965) [flac]\10 - Samba de Orpheu.flac
Extracted successfully
Conclusion: this track is CDDA with probability 100%
Tempfile successfully deleted.
11 -===- F:\Joao Donato - The New Sound of Brazil (1965) [flac]\11 - No Coreto.flac
Extracted successfully
Conclusion: this track is CDDA with probability 99%
Tempfile successfully deleted.
12 -===- F:\Joao Donato - The New Sound of Brazil (1965) [flac]\12 - Nao Se Acabou.flac
Extracted successfully
Conclusion: this track is CDDA with probability 100%
Tempfile successfully deleted.
Finished at: суббота, 17. 04. 2010. - 19:27.48 (operation time: 0:12.30)

Рип с оригинала, автор рипа Flabber
Сидирую до первых 10-ти скачавших. Далее раздача поддерживается силами скачавших.
Скачали сами - дайте скачать другим.
mp3@320 kbps
17:01
265
Нет комментариев. Ваш будет первым!