Поиск

(Latin Jazz, Afro-Cuban Jazz) VA - !A Gozar! Latin Grooves on Blue Note - 2002, FLAC (image+.cue), lossless

(Latin Jazz, Afro-Cuban Jazz) VA - !A Gozar! Latin Grooves on Blue Note - 2002, FLAC (image+.cue), lossless
Треклист:
Various Artists - !A Gozar! Latin Grooves on Blue Note
Жанр: Latin Jazz, Afro-Cuban Jazz
Год выпуска диска: 2002
Производитель диска: EU (Blue Note Records, Capitol Records)
Аудио кодек: FLAC
Тип рипа: image+.cue
Битрейт аудио: lossless
Продолжительность: 56:27
Источник рипа: Рип свой, диск с Озона
Треклист:
1. Sax Con Ritmo - Jack Costanzo
2. Titoro - Bobby Montez
3. Warm Winds - Buddy Collette
4. Guaguanco Stroll - Wali And The Afro Caravan
5. Morning - Clare Fischer
6. McCanna - Les McCann Ltd.
7. (Se Acabo) La Malanga - Bobby Hutcherson
8. Get Out Of My Way - Joe Torres
9. Bajo Numero Uno - Jack Costanzo
10. I'm On My Way - Candido
11. Timbale Groove - Willie Bobo
12. Latin Bit - The Jazz Crusaders
13. Brazilian Soft Shoes - Machito & His Afro-Cuban Jazz Ensemble
14. Night Walk - Joe Torres
15. Yuyo - Bobby Hutcherson
Compiled and produced by Miles Perlich
 
Рецензия (AMG)
Blue Note continues its stellar compilation ways on this Latin jazz sampler, spotlighting both stateside jazzers and salsa kings. The focus is on the '60s and early '70s and the boogaloo rarely loses its sophisticated dance groove over the course of the collection's 15 tracks. On the jazz end of the spectrum, Blue Note stalwart Bobby Hutcherson is tapped for a few tasty sides, while Les McCann, Charles Kynard, Buddy Collette, the Jazz Crusaders, and Clare Fischer all deliver fine work. For somewhat more "authentic" fare, Latin stars -- via New York -- like Machito, Candido, Jack Costanzo, and Willie Bobo bring the home-cooked flavors to the fore. A fine disc for Latin jazz newbies.
 
EAC Log
Exact Audio Copy V0.99 prebeta 4 from 23. January 2008
EAC extraction logfile from 17. July 2010, 15:50
Various / A Gozar! Latin Grooves on Blue Note
Used drive : TSSTcorpDVD+-RW TS-L632D Adapter: 1 ID: 0
Read mode : Secure
Utilize accurate stream : Yes
Defeat audio cache : Yes
Make use of C2 pointers : No
Read offset correction : 6
Overread into Lead-In and Lead-Out : No
Fill up missing offset samples with silence : Yes
Delete leading and trailing silent blocks : No
Null samples used in CRC calculations : Yes
Used interface : Native Win32 interface for Win NT & 2000
Used output format : User Defined Encoder
Selected bitrate : 768 kBit/s
Quality : High
Add ID3 tag : No
Command line compressor : C:\Program Files\Exact Audio Copy\FLAC\FLAC.EXE
Additional command line options : -8 -V %s
TOC of the extracted CD
Track | Start | Length | Start sector | End sector
---------------------------------------------------------
1 | 0:00.00 | 1:58.42 | 0 | 8891
2 | 1:58.42 | 3:42.50 | 8892 | 25591
3 | 5:41.17 | 4:15.15 | 25592 | 44731
4 | 9:56.32 | 3:54.25 | 44732 | 62306
5 | 13:50.57 | 4:07.05 | 62307 | 80836
6 | 17:57.62 | 4:25.15 | 80837 | 100726
7 | 22:23.02 | 4:15.73 | 100727 | 119924
8 | 26:39.00 | 3:00.45 | 119925 | 133469
9 | 29:39.45 | 3:11.15 | 133470 | 147809
10 | 32:50.60 | 3:10.65 | 147810 | 162124
11 | 36:01.50 | 2:48.47 | 162125 | 174771
12 | 38:50.22 | 4:07.60 | 174772 | 193356
13 | 42:58.07 | 2:22.03 | 193357 | 204009
14 | 45:20.10 | 4:27.12 | 204010 | 224046
15 | 49:47.22 | 6:40.63 | 224047 | 254109
Range status and errors
Selected range
Filename C:\Music\Various - A Gozar! Latin Grooves on Blue Note\Various - A Gozar! Latin Grooves on Blue Note.wav
Peak level 98.8 %
Range quality 100.0 %
Test CRC 8ED02D73
Copy CRC 8ED02D73
Copy OK
No errors occurred
End of status report

17:01
297
Нет комментариев. Ваш будет первым!