Поиск

(Vocal Jazz) [WEB] Viviana Zarbo - Take Away - 2018, FLAC (tracks), lossless

(Vocal Jazz) [WEB] Viviana Zarbo - Take Away - 2018, FLAC (tracks), lossless
Треклист:
VIVIANA ZARBO
TAKE AWAY ' ' ' ' ' ' ' ' ' '
Жанр: Vocal Jazz
Год издания: 2018
Издатель (лейбл): 33 Jazz
Страна исполнителя: Italy/UK
Аудиокодек: FLAC (*.flac)
Тип рипа: tracks
Битрейт аудио: lossless
Продолжительность: 31:27
Источник (релизер): WEB
Наличие сканов: нет
Треклист:
1. Bewitched
2. If You Were Mine
3. What a Little Moonlight Can Do
4. Corcovado
5. A Fine Romance
6. Un Sassolino
7. Glad to Be Unhappy
8. After You Get What You Want
9. Senza Fine
 
Лог проверки качества
AUDIOCHECKER v2.0 beta (build 457) - by Dester - opdester@freemail.hu
~~~~~~~~~~~~~~~~~~~~~~~~~~~~~~~~~~
-=== DO NOT EDIT THIS FILE! ===-
Path: ...\Viviana Zarbo - Take Away (2018) [FLAC]
1 -=- 01 - Bewitched.flac -=- CDDA (100%)
2 -=- 02 - If You Were Mine.flac -=- CDDA (100%)
3 -=- 03 - What a Little Moonlight Can Do.flac -=- CDDA (100%)
4 -=- 04 - Corcovado.flac -=- CDDA (100%)
5 -=- 05 - A Fine Romance.flac -=- CDDA (99%)
6 -=- 06 - Un Sassolino.flac -=- CDDA (100%)
7 -=- 07 - Glad to Be Unhappy.flac -=- CDDA (100%)
8 -=- 08 - After You Get What You Want.flac -=- CDDA (100%)
9 -=- 09 - Senza Fine.flac -=- CDDA (100%)
Summary 99,89% CDDA
27036980
••••••••••
foobar2000 1.3.12 / Замер динамического диапазона (DR) 1.1.1
Дата отчёта: 2018-05-22 15:25:08
--------------------------------------------------------------------------------
Анализ: Viviana Zarbo / Take Away
--------------------------------------------------------------------------------
DR Пики RMS Продолжительность трека
--------------------------------------------------------------------------------
DR7 -0.10 дБ -9.28 дБ 4:36 01-Bewitched
DR7 -0.10 дБ -8.02 дБ 2:38 02-If You Were Mine
DR7 -0.10 дБ -8.43 дБ 3:06 03-What a Little Moonlight Can Do
DR7 -0.10 дБ -8.20 дБ 4:04 04-Corcovado
DR7 -0.10 дБ -8.41 дБ 2:02 05-A Fine Romance
DR8 -0.10 дБ -10.19 дБ 2:27 06-Un Sassolino
DR7 -0.10 дБ -9.62 дБ 4:26 07-Glad to Be Unhappy
DR7 -0.10 дБ -8.33 дБ 3:06 08-After You Get What You Want
DR8 -0.10 дБ -8.82 дБ 5:03 09-Senza Fine
--------------------------------------------------------------------------------
Количество треков: 9
Реальные значения DR: DR7
Частота: 44100 Гц
Каналов: 2
Разрядность: 16
Битрейт: 866 кбит/с
Кодек: FLAC
================================================================================
 
Состав
VIVIANA ZARBO vocals
RENATO CHICCO piano
MARK BASSEY trombone
RENATO D'AIELLO saxophone
NICOLA MURESU double bass
ALFONSO VITALE drums
Скачивание доступно после регистрации!!
Приватный:
Нет (DHT включён)
Размер:
196.39 Мб (205,929,993 байт) » файлов: 11
Участники:
0 раздают, 0 качают (0 участников всего)
Внешние участники:
1 раздают, 0 качают (1 участников всего) [ Обновить ]
07:22
16
Нет комментариев. Ваш будет первым!