Поиск

(Jazz Modern / Vocal Jazz) [WEB] Peggy Lee - Echo Painting - 2018, FLAC (tracks), lossless

(Jazz Modern / Vocal Jazz) [WEB] Peggy Lee - Echo Painting - 2018, FLAC (tracks), lossless
Треклист:
Peggy Lee / Echo Painting
Жанр: Jazz Modern / Vocal Jazz
Носитель: WEB
Год издания: 2018
Издатель (лейбл): Web Release (Songlines Records)
Страна исполнителя (группы): Canada
Аудиокодек: FLAC (*.flac)
Тип рипа: tracks
Битрейт аудио: lossless
Продолжительность: 50:32 min
Источник (релизер): qobuz.com
Наличие сканов в содержимом раздачи:
Треклист:
1. Incantation. 5:22
2. Out On a Limb. 4:27
3. A Strange Visit. 3:45
4. Nice Collection. 3:44
5. Snappy. 5:10
6. Painting Echoes. 5:23
7. Foreground. 2:11
8. The Hidden Piece. 1:50
9. Hymn. 6:02
10. WB Intro. 2:41
11. Weather Building. 3:30
12. End Piece. 1:42
13. The Unfaithful Servant. 4:45
 
DRM.log
foobar2000 1.3.8 / Dynamic Range Meter 1.1.1
log date: 2018-05-22 21:58:36
--------------------------------------------------------------------------------
Analyzed: Peggy Lee / Echo Painting
--------------------------------------------------------------------------------
DR Peak RMS Duration Track
--------------------------------------------------------------------------------
DR11 -2.19 dB -18.34 dB 5:23 1/13-Incantation
DR12 -1.99 dB -16.60 dB 4:28 2/13-Out On a Limb
DR13 -3.00 dB -19.18 dB 3:46 3/13-A Strange Visit
DR11 -2.90 dB -16.80 dB 3:44 4/13-Nice Collection
DR13 -1.28 dB -20.29 dB 5:10 5/13-Snappy
DR13 -0.69 dB -18.22 dB 5:24 6/13-Painting Echoes
DR15 -0.69 dB -17.67 dB 2:12 7/13-Foreground
DR11 -2.50 dB -16.49 dB 1:51 8/13-The Hidden Piece
DR11 -2.92 dB -17.35 dB 6:03 9/13-Hymn
DR13 -5.43 dB -23.20 dB 2:41 10/13-WB Intro
DR11 -0.69 dB -14.64 dB 3:31 11/13-Weather Building
DR11 -4.83 dB -18.40 dB 1:43 12/13-End Piece
DR12 -2.54 dB -18.12 dB 4:46 13/13-The Unfaithful Servant
--------------------------------------------------------------------------------
Number of tracks: 13
Official DR value: DR12
Samplerate: 44100 Hz
Channels: 2
Bits per sample: 16
Bitrate: 702 kbps
Codec: FLAC
================================================================================
 
Лог проверки качества
-----------------------
DON'T MODIFY THIS FILE
-----------------------
PERFORMER: auCDtect Task Manager, ver. 1.6.0 RC1 build 1.6.0.1
Copyright (c) 2008-2010 y-soft. All rights reserved
http://y-soft.org
ANALYZER: auCDtect: CD records authenticity detector, version 0.8.2
Copyright (c) 2004 Oleg Berngardt. All rights reserved.
Copyright (c) 2004 Alexander Djourik. All rights reserved.
FILE: 01. Incantation.flac
Size: 30161983 Hash: F58BBB474CB9D9A15777523260C75354 Accuracy: -m0
Conclusion: CDDA 100%
Signature: 37F928DE700506C64B8540419B5DA4E2F1458489
FILE: 02. Out On a Limb.flac
Size: 24908356 Hash: 043D91C3D201FDE05B262A5BC53259ED Accuracy: -m0
Conclusion: CDDA 100%
Signature: B72EBB863FD4FF7C3823BFCF6DB8FBD70367668F
FILE: 03. A Strange Visit.flac
Size: 19205585 Hash: 68AA5D1BAF3BE927DAC93846BE22C76A Accuracy: -m0
Conclusion: CDDA 99%
Signature: 1B4D3A213A8768CCA62306DD14A6555607B3CE15
FILE: 04. Nice Collection.flac
Size: 22720727 Hash: ECE4F37C59A4F5A29A28AFFE044A7551 Accuracy: -m0
Conclusion: CDDA 100%
Signature: 6759635AF29694CDD8F26B679CE4BE9EF0B46394
FILE: 05. Snappy.flac
Size: 24686019 Hash: 72AAF9CA28EBAC183BEF6BF1F232DD5D Accuracy: -m0
Conclusion: CDDA 100%
Signature: EAB9A6EE3CF2730D0CA57EDA84B21EBFF7C1BE43
FILE: 06. Painting Echoes.flac
Size: 31893728 Hash: 3C3B4457C9C7E6BF7F8A17E9457FD00E Accuracy: -m0
Conclusion: CDDA 100%
Signature: 554CD493145B5340BB1189BD5ED78E9D5E8E2886
FILE: 07. Foreground.flac
Size: 12802948 Hash: 81DAB4DFBFD21FA70225569B262CA99E Accuracy: -m0
Conclusion: CDDA 99%
Signature: 206C16B1B72BB68B717FCFBE33BEF46B1BD530FC
FILE: 08. The Hidden Piece.flac
Size: 11173963 Hash: E718E58FB85A1DAC57D642BF7AF18883 Accuracy: -m0
Conclusion: CDDA 100%
Signature: AF9634E643FC4ED363D82DB6B66D1D63ADC02176
FILE: 09. Hymn.flac
Size: 35123613 Hash: A1F6512A8F9E1FCA679DE5B5A8368AFC Accuracy: -m0
Conclusion: CDDA 100%
Signature: 8FE24F370E180C705FC59FC19F98C22FEA3F92DD
FILE: 10. WB Intro.flac
Size: 12133663 Hash: AF30A5B84B0ACF691DC730BA1137C83D Accuracy: -m0
Conclusion: CDDA 99%
Signature: 655F229C8669B023B1E32A36D0D4749F3601BB93
FILE: 11. Weather Building.flac
Size: 23386813 Hash: AC9BDB268483329D226FC6211AF86F3B Accuracy: -m0
Conclusion: CDDA 100%
Signature: 913C80DD05915CE8D109761716C801DCA31354E6
FILE: 12. End Piece.flac
Size: 9842428 Hash: 9D1760BBB8DEFE1DE44D22B015B2F398 Accuracy: -m0
Conclusion: CDDA 100%
Signature: BBB07FBA8EE72406E6CBC1B472A588EC47331B56
FILE: 13. The Unfaithful Servant.flac
Size: 25173955 Hash: F01E925E4D58496D126D276846B44224 Accuracy: -m0
Conclusion: CDDA 100%
Signature: C5AFA7C0985F6E5ABFE9FC9E2FAC3CED1B704A65
 
Об альбоме (сборнике)
Recording April 16, 2017 & April 17, 2017. Other Room Music, The Warehouse Studio, Vancouver, BC
 
Состав
- Brad Turner / trumpet & flugelhorn
- Roderick Murray / trombone
- Jon Bentley / soprano & tenor sax
- John Paton / tenor sax
- Peggy Lee / cello
- Meredith Bates / violin
- Cole Schmidt / electric & acoustic guitar
- James Meger / electric & acoustic bass
- Bradshaw Pack / pedal steel
- Dylan van der Schyff / drums, percussion & drum machine
- Robin Holcomb / vocals (#13)
Скачивание доступно после регистрации!!
Приватный:
Нет (DHT включён)
Размер:
270.44 Мб (283,577,745 байт) » файлов: 18
Участники:
0 раздают, 0 качают (0 участников всего)
Внешние участники:
7 раздают, 2 качают (9 участников всего) [ Обновить ]
07:23
6
Нет комментариев. Ваш будет первым!