Поиск

(Vocal Jazz, Soul) [WEB] Molly Johnson - Meaning To Tell Ya - 2018, FLAC (tracks), lossless

(Vocal Jazz, Soul) [WEB] Molly Johnson - Meaning To Tell Ya - 2018, FLAC (tracks), lossless
Треклист:
M ' O ' L ' L ' Y
MEANING TO TELL YA
J O H N S O N'
Жанр: Vocal Jazz, Soul
Год издания: 2018
Лейбл: Belle Productions/UMG
Страна исполнителя: Canada
Аудиокодек: FLAC (*.flac)
Тип рипа: tracks
Битрейт аудио: lossless
Продолжительность: 40:30
Источник (релизер): WEB
Наличие сканов: нет
Треклист:
01. Inner City Blues
02. Better Than This
03. Lady Day And John Coltrane
04. Boogie Street
05. Gone
06. Stop
07. Protest Song
08. Meaning To Tell Ya
09. L.O.V.E.
10. Together
 
Лог проверки качества
AUDIOCHECKER v2.0 beta (build 457) - by Dester - opdester@freemail.hu
~~~~~~~~~~~~~~~~~~~~~~~~~~~~~~~~~~
-=== DO NOT EDIT THIS FILE! ===-
Path: ...\Molly Johnson - Meaning To Tell Ya (2018) [FLAC]
01 -=- 01 - Inner City Blues.flac -=- CDDA (99%)
02 -=- 02 - Better Than This.flac -=- CDDA (100%)
03 -=- 03 - Lady Day And John Coltrane.flac -=- CDDA (100%)
04 -=- 04 - Boogie Street.flac -=- CDDA (100%)
05 -=- 05 - Gone.flac -=- CDDA (100%)
06 -=- 06 - Stop.flac -=- CDDA (100%)
07 -=- 07 - Protest Song.flac -=- CDDA (100%)
08 -=- 08 - Meaning To Tell Ya.flac -=- CDDA (99%)
09 -=- 09 - L.O.V.E..flac -=- CDDA (100%)
10 -=- 10 - Together.flac -=- CDDA (100%)
Summary 99,80% CDDA
259258660
••••••••••
foobar2000 1.3.12 / Замер динамического диапазона (DR) 1.1.1
Дата отчёта: 2018-05-24 09:20:36
--------------------------------------------------------------------------------
Анализ: Molly Johnson / Meaning To Tell Ya
--------------------------------------------------------------------------------
DR Пики RMS Продолжительность трека
--------------------------------------------------------------------------------
DR7 -0.59 дБ -9.44 дБ 4:53 01-Inner City Blues
DR6 -0.59 дБ -8.64 дБ 3:38 02-Better Than This
DR5 -0.59 дБ -7.13 дБ 4:26 03-Lady Day And John Coltrane
DR8 -0.59 дБ -9.94 дБ 5:44 04-Boogie Street
DR5 -0.59 дБ -7.63 дБ 3:03 05-Gone
DR6 -0.59 дБ -8.75 дБ 4:20 06-Stop
DR5 -0.59 дБ -7.54 дБ 3:17 07-Protest Song
DR6 -0.59 дБ -8.34 дБ 4:07 08-Meaning To Tell Ya
DR6 -0.59 дБ -7.89 дБ 3:07 09-L.O.V.E.
DR6 -0.59 дБ -8.73 дБ 3:56 10-Together
--------------------------------------------------------------------------------
Количество треков: 10
Реальные значения DR: DR6
Частота: 44100 Гц
Каналов: 2
Разрядность: 16
Битрейт: 905 кбит/с
Кодек: FLAC
================================================================================
 
Состав
Molly Johnson - vocals
Robby Botos - piano
Pete Kuzma - Hammond B3
Justin Abedin - guitar
Mike Downes - bass guitar
Davide Di Renzo - drums, percussion
Amy Keys - background vocals
Bob Sheppard - tenor sax (3, 4)
Приватный:
Нет (DHT включён)
Размер:
260.07 Мб (272,703,295 байт) » файлов: 12
Участники:
0 раздают, 0 качают (0 участников всего)
Внешние участники:
9 раздают, 3 качают (12 участников всего) [ Обновить ]
07:23
2
Нет комментариев. Ваш будет первым!