Поиск

(Vocal Jazz) [CD] Jeri Brown & Jimmy Rowles - A Timeless Place - 1995, FLAC (tracks+.cue), lossless

(Vocal Jazz) [CD] Jeri Brown & Jimmy Rowles - A Timeless Place - 1995, FLAC (tracks+.cue), lossless
Треклист:
Jeri Brown & Jimmy Rowles - A Timeless Place
Жанр: Vocal Jazz
Носитель: CD
Страна-производитель диска (релиза): Канада
Год издания: 1995
Издатель (лейбл): Justin Time
Номер по каталогу: JUST 70-2
Аудиокодек: FLAC (*.flac)
Тип рипа: tracks+.cue
Битрейт аудио: lossless
Продолжительность: 56:12
Источник (релизер): Biganon
Наличие сканов в содержимом раздачи: нет
Треклист:
01. Morning Star (Mercer-Rowles) - 6:48
02. After School (Rowles) - 5:10
03. Baby, Don't Quit Now (Mercer-Rowles) - 6:44
04. A Timeless Place (Rowles-Winstone) - 7:10
05. Old Orleans (Rowles) - 5:03
06. Music's the Only Thing That's on My Mind (Rowles) - 5:44
07. Fraser (Mercer-Rowles) - 5:12
08. My Mother's Love (Mercer-Rowles) - 6:16
09. Looking Back (Ernst-Rowles) - 8:05
Состав:
Jeri Brown - vocals
Jimmy Rowles - piano, vocals
Eric Von Essen - bass
Jerry Brown - drums
Recorded at Capitol Studios, Hollywood, CA on May 21-22, 1994.
 
Лог создания рипа
Exact Audio Copy V1.3 from 2. September 2016
EAC extraction logfile from 19. May 2017, 23:29
Jeri Brown, Jimmy Rowles / A Timeless Place
Used drive : TSSTcorpCDDVDW SH-224BB Adapter: 1 ID: 0
Read mode : Secure
Utilize accurate stream : Yes
Defeat audio cache : Yes
Make use of C2 pointers : No
Read offset correction : 6
Overread into Lead-In and Lead-Out : No
Fill up missing offset samples with silence : Yes
Delete leading and trailing silent blocks : No
Null samples used in CRC calculations : Yes
Used interface : Native Win32 interface for Win NT & 2000
Gap handling : Appended to previous track
Used output format : User Defined Encoder
Selected bitrate : 1024 kBit/s
Quality : High
Add ID3 tag : No
Command line compressor : C:\Program Files (x86)\flac-1.3.2-win\win32\flac.exe
Additional command line options : -8 -e -p -V -T "ARTIST=%artist%" -T "TITLE=%title%" -T "ALBUM=%albumtitle%" -T "DATE=%year%" -T "TRACKNUMBER=%tracknr%" -T "GENRE=%genre%" -T "PERFORMER=%albuminterpret%" -T "COMPOSER=%composer%" %haslyrics%--tag-from-file=LYRICS="%lyricsfile%"%haslyrics% -T "ALBUMARTIST=%albumartist%" -T "DISCNUMBER=%cdnumber%" -T "TOTALDISCS=%totalcds%" -T "TOTALTRACKS=%numtracks%" -T "COMMENT=%comment%" %source% -o %dest%
TOC of the extracted CD
Track | Start | Length | Start sector | End sector
---------------------------------------------------------
1 | 0:00.00 | 6:48.12 | 0 | 30611
2 | 6:48.12 | 5:09.70 | 30612 | 53856
3 | 11:58.07 | 6:43.40 | 53857 | 84121
4 | 18:41.47 | 7:09.63 | 84122 | 116359
5 | 25:51.35 | 5:03.00 | 116360 | 139084
6 | 30:54.35 | 5:44.17 | 139085 | 164901
7 | 36:38.52 | 5:11.70 | 164902 | 188296
8 | 41:50.47 | 6:16.20 | 188297 | 216516
9 | 48:06.67 | 8:04.73 | 216517 | 252889
Track 1
Filename Z:\windows\EAC rips\Jeri Brown, Jimmy Rowles - A Timeless Place (1995) [FLAC] {JIT 7}\01 - Morning Star.wav
Pre-gap length 0:00:02.00
Peak level 97.4 %
Extraction speed 5.0 X
Track quality 100.0 %
Test CRC A980B978
Copy CRC A980B978
Accurately ripped (confidence 9) [8B371411] (AR v2)
Copy OK
Track 2
Filename Z:\windows\EAC rips\Jeri Brown, Jimmy Rowles - A Timeless Place (1995) [FLAC] {JIT 7}\02 - After School.wav
Pre-gap length 0:00:02.56
Peak level 97.6 %
Extraction speed 5.5 X
Track quality 100.0 %
Test CRC A234545C
Copy CRC A234545C
Accurately ripped (confidence 9) [F1848F84] (AR v2)
Copy OK
Track 3
Filename Z:\windows\EAC rips\Jeri Brown, Jimmy Rowles - A Timeless Place (1995) [FLAC] {JIT 7}\03 - Baby, Don't Quit Now.wav
Pre-gap length 0:00:02.56
Peak level 98.1 %
Extraction speed 6.2 X
Track quality 100.0 %
Test CRC 195BEDEA
Copy CRC 195BEDEA
Accurately ripped (confidence 9) [F1F54DAB] (AR v2)
Copy OK
Track 4
Filename Z:\windows\EAC rips\Jeri Brown, Jimmy Rowles - A Timeless Place (1995) [FLAC] {JIT 7}\04 - A Timeless Place.wav
Pre-gap length 0:00:02.86
Peak level 97.7 %
Extraction speed 6.9 X
Track quality 100.0 %
Test CRC 2376BA35
Copy CRC 2376BA35
Accurately ripped (confidence 9) [2BA43717] (AR v2)
Copy OK
Track 5
Filename Z:\windows\EAC rips\Jeri Brown, Jimmy Rowles - A Timeless Place (1995) [FLAC] {JIT 7}\05 - Old Orleans.wav
Pre-gap length 0:00:02.57
Peak level 96.0 %
Extraction speed 7.2 X
Track quality 100.0 %
Test CRC 3D2F5338
Copy CRC 3D2F5338
Accurately ripped (confidence 9) [60D5C389] (AR v2)
Copy OK
Track 6
Filename Z:\windows\EAC rips\Jeri Brown, Jimmy Rowles - A Timeless Place (1995) [FLAC] {JIT 7}\06 - Music's the Only Thing That's on My Mind.wav
Pre-gap length 0:00:00.66
Peak level 97.7 %
Extraction speed 7.6 X
Track quality 100.0 %
Test CRC 910012C8
Copy CRC 910012C8
Accurately ripped (confidence 9) [DAD6A473] (AR v2)
Copy OK
Track 7
Filename Z:\windows\EAC rips\Jeri Brown, Jimmy Rowles - A Timeless Place (1995) [FLAC] {JIT 7}\07 - Fraser.wav
Pre-gap length 0:00:01.96
Peak level 97.5 %
Extraction speed 7.9 X
Track quality 100.0 %
Test CRC 4DB0E52C
Copy CRC 4DB0E52C
Accurately ripped (confidence 9) [C61A1979] (AR v2)
Copy OK
Track 8
Filename Z:\windows\EAC rips\Jeri Brown, Jimmy Rowles - A Timeless Place (1995) [FLAC] {JIT 7}\08 - My Mother's Love.wav
Pre-gap length 0:00:03.20
Peak level 96.5 %
Extraction speed 8.5 X
Track quality 100.0 %
Test CRC AC1C7B88
Copy CRC AC1C7B88
Accurately ripped (confidence 9) [D9E5432A] (AR v2)
Copy OK
Track 9
Filename Z:\windows\EAC rips\Jeri Brown, Jimmy Rowles - A Timeless Place (1995) [FLAC] {JIT 7}\09 - Looking Back.wav
Pre-gap length 0:00:02.53
Peak level 86.8 %
Extraction speed 9.1 X
Track quality 100.0 %
Test CRC C71C75F2
Copy CRC C71C75F2
Accurately ripped (confidence 9) [DA045071] (AR v2)
Copy OK
All tracks accurately ripped
No errors occurred
End of status report
==== Log checksum 12155B57E8B69994118CE52A5240A1EC560831DB85F25BEFE9601FB360A81662 ====
 
Содержание индексной карты (.CUE)
REM GENRE Jazz
REM DATE 1995
REM DISCID 610D2B09
REM COMMENT "ExactAudioCopy v1.3"
PERFORMER "Jeri Brown & Jimmy Rowles"
TITLE "A Timeless Place"
FILE "01 - Morning Star.wav" WAVE
TRACK 01 AUDIO
TITLE "Morning Star"
PERFORMER "Jeri Brown & Jimmy Rowles"
ISRC CAJ229507120
INDEX 01 00:00:00
TRACK 02 AUDIO
TITLE "After School"
PERFORMER "Jeri Brown & Jimmy Rowles"
ISRC CAJ229507130
INDEX 00 06:45:45
FILE "02 - After School.wav" WAVE
INDEX 01 00:00:00
TRACK 03 AUDIO
TITLE "Baby, Don't Quit Now"
PERFORMER "Jeri Brown & Jimmy Rowles"
ISRC CAJ229507140
INDEX 00 05:07:28
FILE "03 - Baby, Don't Quit Now.wav" WAVE
INDEX 01 00:00:00
TRACK 04 AUDIO
TITLE "A Timeless Place"
PERFORMER "Jeri Brown & Jimmy Rowles"
ISRC CAJ229507150
INDEX 00 06:40:50
FILE "04 - A Timeless Place.wav" WAVE
INDEX 01 00:00:00
TRACK 05 AUDIO
TITLE "Old Orleans"
PERFORMER "Jeri Brown & Jimmy Rowles"
ISRC CAJ229507160
INDEX 00 07:07:20
FILE "05 - Old Orleans.wav" WAVE
INDEX 01 00:00:00
TRACK 06 AUDIO
TITLE "Music's the Only Thing That's on My Mind"
PERFORMER "Jeri Brown & Jimmy Rowles"
ISRC CAJ229507170
INDEX 00 05:02:25
FILE "06 - Music's the Only Thing That's on My Mind.wav" WAVE
INDEX 01 00:00:00
TRACK 07 AUDIO
TITLE "Fraser"
PERFORMER "Jeri Brown & Jimmy Rowles"
ISRC CAJ229507180
INDEX 00 05:42:20
FILE "07 - Fraser.wav" WAVE
INDEX 01 00:00:00
TRACK 08 AUDIO
TITLE "My Mother's Love"
PERFORMER "Jeri Brown & Jimmy Rowles"
ISRC CAJ229507190
INDEX 00 05:08:55
FILE "08 - My Mother's Love.wav" WAVE
INDEX 01 00:00:00
TRACK 09 AUDIO
TITLE "Looking Back"
PERFORMER "Jeri Brown & Jimmy Rowles"
ISRC CAJ229507200
INDEX 00 06:13:55
FILE "09 - Looking Back.wav" WAVE
INDEX 01 00:00:00
 
Отчет CUETools
[CUETools log; Date: 25.05.2018 1:12:15; Version: 2.1.5]
[CTDB TOCID: tEkvaUucLCu70khgQKwlaW3HVAw-] found.
Track | CTDB Status
1 | (12/12) Accurately ripped
2 | (12/12) Accurately ripped
3 | (12/12) Accurately ripped
4 | (12/12) Accurately ripped
5 | (12/12) Accurately ripped
6 | (12/12) Accurately ripped
7 | (12/12) Accurately ripped
8 | (12/12) Accurately ripped
9 | (11/12) Accurately ripped
[AccurateRip ID: 001305b2-008b10ed-610d2b09] found.
Track [ CRC | V2 ] Status
01 [31970023|8b371411] (03+11/14) Accurately ripped
02 [e562a673|f1848f84] (03+11/14) Accurately ripped
03 [d058f5fa|f1f54dab] (03+11/14) Accurately ripped
04 [54e1a7c0|2ba43717] (03+11/14) Accurately ripped
05 [b026ef17|60d5c389] (03+11/14) Accurately ripped
06 [df7d3dd8|dad6a473] (03+11/14) Accurately ripped
07 [79e6e824|c61a1979] (03+11/14) Accurately ripped
08 [8007be63|d9e5432a] (03+11/14) Accurately ripped
09 [27c9320d|da045071] (03+11/14) Accurately ripped
Track Peak [ CRC32 ] [W/O NULL] [ LOG ]
-- 98,1 [10CBA8AC] [BE8E06A3]
01 97,4 [A980B978] [3A534D11] CRC32
02 97,6 [A234545C] [B8CBEA16] CRC32
03 98,1 [195BEDEA] [B9AB978C] CRC32
04 97,7 [2376BA35] [A9542D49] CRC32
05 96,0 [3D2F5338] [BAA9A91D] CRC32
06 97,7 [910012C8] [F94A6E88] CRC32
07 97,5 [4DB0E52C] [21314766] CRC32
08 96,5 [AC1C7B88] [64E5E3E0] CRC32
09 86,8 [C71C75F2] [B003E93C] CRC32
 
AllMusic Review by Scott Yanow
Jeri Brown, who has a four-octave range, is quite restrained during these thoughtful and very intimate performances. The talented singer performs nine compositions by Jimmy Rowles and uses the composer on piano along with bassist Eric Von Essen. Brown gives great emphasis and feeling to the often sensuous (and occasionally witty) lyrics. The words to four of the nine songs are by Johnny Mercer and for three others Rowles wrote his own but it is Norma Winstone's lyrics to the pianist's classic "The Peacocks" (here retitled "A Timeless Place") that are most memorable on this haunting set.
Приватный:
Нет (DHT включён)
Размер:
254.76 Мб (267,140,029 байт) » файлов: 16
Участники:
0 раздают, 0 качают (0 участников всего)
Внешние участники:
--- [ Обновить ]
07:24
1
Нет комментариев. Ваш будет первым!