Поиск

(Vocal Jazz) [CD] Nina Michelle - Love Confessions - 2018, FLAC (tracks+.cue), lossless

(Vocal Jazz) [CD] Nina Michelle - Love Confessions - 2018, FLAC (tracks+.cue), lossless
Треклист:
Nina Michelle ' ' ' ' ' ' ''
love confessions'
Жанр: Vocal Jazz
Страна-производитель диска: Germany
Год издания: 2018
Издатель (лейбл): Flowerstreet Records
Страна исполнителя: Canada
Аудиокодек: FLAC (*.flac)
Тип рипа: tracks+.cue
Битрейт аудио: lossless
Продолжительность: 60:40
Источник (релизер): спасибо PeepingTomPayne
Наличие сканов: нет
Треклист:
01. Keep on Believing
02. The Story Went to Pieces
03. Cover Me
04. All You Ever Wanted
05. White Lilies
06. The Hymn
07. This Time
08. Man Out of Place
09. Too Good (6:45)
10. I Will Wait for You
11. No Safety Net
12. Time to Go
13. V šírom poli kríž (Bonus Track)
 
Лог создания рипа
Exact Audio Copy V1.3 from 2. September 2016
EAC extraction logfile from 22. May 2018, 11:55
Nina Michelle / Love Confessions
Used drive : hp DVDRW DU8A6SH Adapter: 1 ID: 0
Read mode : Secure
Utilize accurate stream : Yes
Defeat audio cache : Yes
Make use of C2 pointers : No
Read offset correction : 6
Overread into Lead-In and Lead-Out : No
Fill up missing offset samples with silence : Yes
Delete leading and trailing silent blocks : No
Null samples used in CRC calculations : Yes
Used interface : Native Win32 interface for Win NT & 2000
Gap handling : Appended to previous track
Used output format : User Defined Encoder
Selected bitrate : 128 kBit/s
Quality : High
Add ID3 tag : No
Command line compressor : C:\Program Files (x86)\Exact Audio Copy\Flac\flac.exe
Additional command line options : -8 -e -p -V -T "ARTIST=%artist%" -T "TITLE=%title%" -T "ALBUM=%albumtitle%" -T "DATE=%year%" -T "TRACKNUMBER=%tracknr%" -T "GENRE=%genre%" -T "PERFORMER=%albuminterpret%" -T "COMPOSER=%composer%" %haslyrics%--tag-from-file=LYRICS="%lyricsfile%"%haslyrics% -T "ALBUMARTIST=%albumartist%" -T "DISCNUMBER=%cdnumber%" -T "TOTALDISCS=%totalcds%" -T "TOTALTRACKS=%numtracks%" -T "COMMENT=%comment%" %source% -o %dest%
TOC of the extracted CD
Track | Start | Length | Start sector | End sector
---------------------------------------------------------
1 | 0:00.00 | 7:44.73 | 0 | 34872
2 | 7:44.73 | 4:07.00 | 34873 | 53397
3 | 11:51.73 | 3:42.25 | 53398 | 70072
4 | 15:34.23 | 3:50.15 | 70073 | 87337
5 | 19:24.38 | 3:47.49 | 87338 | 104411
6 | 23:12.12 | 3:39.18 | 104412 | 120854
7 | 26:51.30 | 6:44.55 | 120855 | 151209
8 | 33:36.10 | 3:31.39 | 151210 | 167073
9 | 37:07.49 | 6:45.34 | 167074 | 197482
10 | 43:53.08 | 3:55.04 | 197483 | 215111
11 | 47:48.12 | 4:46.44 | 215112 | 236605
12 | 52:34.56 | 4:16.68 | 236606 | 255873
13 | 56:51.49 | 3:48.27 | 255874 | 273000
Track 1
Filename C:\EAC Rips\Nina Michelle - Love Confessions (2018) [FLAC]\01 - Keep on Believing.wav
Pre-gap length 0:00:02.00
Peak level 92.2 %
Extraction speed 1.2 X
Track quality 100.0 %
Test CRC EECCAB69
Copy CRC EECCAB69
Track not present in AccurateRip database
Copy OK
Track 2
Filename C:\EAC Rips\Nina Michelle - Love Confessions (2018) [FLAC]\02 - The Story Went to Pieces.wav
Peak level 88.7 %
Extraction speed 1.2 X
Track quality 99.9 %
Test CRC 21D69376
Copy CRC 21D69376
Track not present in AccurateRip database
Copy OK
Track 3
Filename C:\EAC Rips\Nina Michelle - Love Confessions (2018) [FLAC]\03 - Cover Me.wav
Peak level 88.8 %
Extraction speed 1.4 X
Track quality 100.0 %
Test CRC 4AD93BF7
Copy CRC 4AD93BF7
Track not present in AccurateRip database
Copy OK
Track 4
Filename C:\EAC Rips\Nina Michelle - Love Confessions (2018) [FLAC]\04 - All You Ever Wanted.wav
Peak level 96.3 %
Extraction speed 1.5 X
Track quality 100.0 %
Test CRC 22D7DDD1
Copy CRC 22D7DDD1
Track not present in AccurateRip database
Copy OK
Track 5
Filename C:\EAC Rips\Nina Michelle - Love Confessions (2018) [FLAC]\05 - White Lilies.wav
Peak level 85.8 %
Extraction speed 1.6 X
Track quality 100.0 %
Test CRC 7863B621
Copy CRC 7863B621
Track not present in AccurateRip database
Copy OK
Track 6
Filename C:\EAC Rips\Nina Michelle - Love Confessions (2018) [FLAC]\06 - The Hymn.wav
Peak level 85.1 %
Extraction speed 1.7 X
Track quality 100.0 %
Test CRC 69E1DFBB
Copy CRC 69E1DFBB
Track not present in AccurateRip database
Copy OK
Track 7
Filename C:\EAC Rips\Nina Michelle - Love Confessions (2018) [FLAC]\07 - This Time.wav
Peak level 96.6 %
Extraction speed 1.8 X
Track quality 99.9 %
Test CRC EB368975
Copy CRC EB368975
Track not present in AccurateRip database
Copy OK
Track 8
Filename C:\EAC Rips\Nina Michelle - Love Confessions (2018) [FLAC]\08 - Man Out of Place.wav
Peak level 96.4 %
Extraction speed 1.9 X
Track quality 100.0 %
Test CRC 559AA96D
Copy CRC 559AA96D
Track not present in AccurateRip database
Copy OK
Track 9
Filename C:\EAC Rips\Nina Michelle - Love Confessions (2018) [FLAC]\09 - Too Good.wav
Peak level 86.8 %
Extraction speed 2.1 X
Track quality 100.0 %
Test CRC 98F9D963
Copy CRC 98F9D963
Track not present in AccurateRip database
Copy OK
Track 10
Filename C:\EAC Rips\Nina Michelle - Love Confessions (2018) [FLAC]\10 - I Will Wait for You.wav
Peak level 88.8 %
Extraction speed 1.9 X
Track quality 99.9 %
Test CRC FC5AF01F
Copy CRC FC5AF01F
Track not present in AccurateRip database
Copy OK
Track 11
Filename C:\EAC Rips\Nina Michelle - Love Confessions (2018) [FLAC]\11 - No Safety Net.wav
Peak level 86.9 %
Extraction speed 2.2 X
Track quality 100.0 %
Test CRC A4604EF1
Copy CRC A4604EF1
Track not present in AccurateRip database
Copy OK
Track 12
Filename C:\EAC Rips\Nina Michelle - Love Confessions (2018) [FLAC]\12 - Time to Go.wav
Peak level 87.0 %
Extraction speed 2.3 X
Track quality 100.0 %
Test CRC DD3225CE
Copy CRC DD3225CE
Track not present in AccurateRip database
Copy OK
Track 13
Filename C:\EAC Rips\Nina Michelle - Love Confessions (2018) [FLAC]\13 - V šírom poli kríž (Bonus Track).wav
Peak level 84.8 %
Extraction speed 2.3 X
Track quality 100.0 %
Test CRC BF69CC4F
Copy CRC BF69CC4F
Track not present in AccurateRip database
Copy OK
None of the tracks are present in the AccurateRip database
No errors occurred
End of status report
---- CUETools DB Plugin V2.1.6
[CTDB TOCID: PKnnPO05UVMh1XBP6OcgRd6IQCk-] disk not present in database
Submit result: PKnnPO05UVMh1XBP6OcgRd6IQCk- has been uploaded
==== Log checksum 27A3203B940616CB35081A44FF2D96DBC4812562FBDB7A86A09F614E0D04E923 ====
 
Содержание индексной карты (.CUE)
REM GENRE jazz
REM DATE 2018
REM DISCID AE0E380D
REM COMMENT "ExactAudioCopy v1.3"
CATALOG 0705632825419
PERFORMER "Nina Michelle"
TITLE "Love Confessions"
REM COMPOSER ""
FILE "01 - Keep on Believing.wav" WAVE
TRACK 01 AUDIO
TITLE "Keep on Believing"
PERFORMER "Nina Michelle"
REM COMPOSER ""
ISRC DEKX51600746
INDEX 01 00:00:00
FILE "02 - The Story Went to Pieces.wav" WAVE
TRACK 02 AUDIO
TITLE "The Story Went to Pieces"
PERFORMER "Nina Michelle"
REM COMPOSER ""
ISRC DEKX51600747
INDEX 01 00:00:00
FILE "03 - Cover Me.wav" WAVE
TRACK 03 AUDIO
TITLE "Cover Me"
PERFORMER "Nina Michelle"
REM COMPOSER ""
ISRC DEKX51600748
INDEX 01 00:00:00
FILE "04 - All You Ever Wanted.wav" WAVE
TRACK 04 AUDIO
TITLE "All You Ever Wanted"
PERFORMER "Nina Michelle"
REM COMPOSER ""
ISRC DEKX51600749
INDEX 01 00:00:00
FILE "05 - White Lilies.wav" WAVE
TRACK 05 AUDIO
TITLE "White Lilies"
PERFORMER "Nina Michelle"
REM COMPOSER ""
ISRC DEKX51600750
INDEX 01 00:00:00
FILE "06 - The Hymn.wav" WAVE
TRACK 06 AUDIO
TITLE "The Hymn"
PERFORMER "Nina Michelle"
REM COMPOSER ""
ISRC DEKX51600751
INDEX 01 00:00:00
FILE "07 - This Time.wav" WAVE
TRACK 07 AUDIO
TITLE "This Time"
PERFORMER "Nina Michelle"
REM COMPOSER ""
ISRC DEKX51600752
INDEX 01 00:00:00
FILE "08 - Man Out of Place.wav" WAVE
TRACK 08 AUDIO
TITLE "Man Out of Place"
PERFORMER "Nina Michelle"
REM COMPOSER ""
ISRC DEKX51600753
INDEX 01 00:00:00
FILE "09 - Too Good.wav" WAVE
TRACK 09 AUDIO
TITLE "Too Good"
PERFORMER "Nina Michelle"
REM COMPOSER ""
ISRC DEKX51600754
INDEX 01 00:00:00
FILE "10 - I Will Wait for You.wav" WAVE
TRACK 10 AUDIO
TITLE "I Will Wait for You"
PERFORMER "Nina Michelle"
REM COMPOSER ""
ISRC DEKX51600755
INDEX 01 00:00:00
FILE "11 - No Safety Net.wav" WAVE
TRACK 11 AUDIO
TITLE "No Safety Net"
PERFORMER "Nina Michelle"
REM COMPOSER ""
ISRC DEKX51600756
INDEX 01 00:00:00
FILE "12 - Time to Go.wav" WAVE
TRACK 12 AUDIO
TITLE "Time to Go"
PERFORMER "Nina Michelle"
REM COMPOSER ""
ISRC DEKX51600757
INDEX 01 00:00:00
FILE "13 - V sirom poli kriz (Bonus Track).wav" WAVE
TRACK 13 AUDIO
TITLE "V sirom poli kriz (Bonus Track)"
PERFORMER "Nina Michelle"
REM COMPOSER ""
ISRC DEKX51600758
INDEX 01 00:00:00
 
Состав
Nina Michelle - vocals
Jan Eschke - piano, keys
Peter Tuscher - trumpet, flugelhorn
Andreas Kurz - bass
Rick Hollander - drums
Peter Schneider - guitar
Скачивание доступно после регистрации!!
Приватный:
Нет (DHT включён)
Размер:
395.29 Мб (414,489,817 байт) » файлов: 18
Участники:
0 раздают, 0 качают (0 участников всего)
Внешние участники:
--- [ Обновить ]
07:25
3
Нет комментариев. Ваш будет первым!