Поиск

(Vocal Jazz) [WEB] Nellie McKay - Sister Orchid - 2018, FLAC (tracks), lossless

(Vocal Jazz) [WEB] Nellie McKay - Sister Orchid - 2018, FLAC (tracks), lossless
Треклист:
Nellie McKay
SISTER ORCHID'
Жанр: Vocal Jazz
Год издания: 2018
Издатель (лейбл): Palmetto Records
Номер по каталогу: PM2189
Страна исполнителя: USA
Аудиокодек: FLAC (*.flac)
Тип рипа: tracks
Битрейт аудио: lossless
Продолжительность: 35:00
Источник (релизер): WEB
Наличие сканов: нет
Треклист:
01. My Romance
02. Angel Eyes
03. Small Day Tomorrow
04. Willow Weep for Me
05. The Nearness of You
06. Georgia
07. Lazybones
08. Where or When
09. Everything Happens to Me
10. In a Sentimental Mood
11. My Romance (Reprise)
 
Лог проверки качества
AUDIOCHECKER v2.0 beta (build 457) - by Dester - opdester@freemail.hu
~~~~~~~~~~~~~~~~~~~~~~~~~~~~~~~~~~
-=== DO NOT EDIT THIS FILE! ===-
Path: ...\Nellie McKay - Sister Orchid (2018) [FLAC]
01 -=- 01 - My Romance.flac -=- CDDA (100%)
02 -=- 02 - Angel Eyes.flac -=- CDDA (86%)
03 -=- 03 - Small Day Tomorrow.flac -=- CDDA (100%)
04 -=- 04 - Willow Weep for Me.flac -=- CDDA (100%)
05 -=- 05 - The Nearness of You.flac -=- CDDA (100%)
06 -=- 06 - Georgia on My Mind.flac -=- CDDA (100%)
07 -=- 07 - Lazybones.flac -=- CDDA (100%)
08 -=- 08 - Where or When.flac -=- CDDA (100%)
09 -=- 09 - Everything Happens to Me.flac -=- CDDA (100%)
10 -=- 10 - In a Sentimental Mood.flac -=- CDDA (100%)
11 -=- 11 - My Romance (Reprise).flac -=- CDDA (100%)
Summary 98,73% CDDA
135083412
••••••••••
foobar2000 1.3.12 / Замер динамического диапазона (DR) 1.1.1
Дата отчёта: 2018-05-20 13:46:51
--------------------------------------------------------------------------------
Анализ: Nellie McKay / Sister Orchid
--------------------------------------------------------------------------------
DR Пики RMS Продолжительность трека
--------------------------------------------------------------------------------
DR11 -0.16 дБ -14.46 дБ 2:21 01-My Romance
DR11 -0.01 дБ -14.51 дБ 2:01 02-Angel Eyes
DR11 -0.01 дБ -13.01 дБ 3:33 03-Small Day Tomorrow
DR11 -0.01 дБ -14.24 дБ 5:55 04-Willow Weep for Me
DR12 -0.01 дБ -14.84 дБ 2:17 05-The Nearness of You
DR10 -0.01 дБ -13.23 дБ 3:35 06-Georgia on My Mind
DR12 -0.01 дБ -14.61 дБ 3:11 07-Lazybones
DR11 -0.01 дБ -14.63 дБ 2:41 08-Where or When
DR12 -0.01 дБ -14.00 дБ 2:55 09-Everything Happens to Me
DR10 -0.01 дБ -14.16 дБ 3:48 10-In a Sentimental Mood
DR10 -0.01 дБ -13.46 дБ 2:42 11-My Romance (Reprise)
--------------------------------------------------------------------------------
Количество треков: 11
Реальные значения DR: DR11
Частота: 44100 Гц
Каналов: 2
Разрядность: 16
Битрейт: 585 кбит/с
Кодек: FLAC
================================================================================
 
Об альбоме
Given her jazz-influenced sound and knack for thoughtfully chosen cover songs, it's surprising that Nellie McKay had never released a complete jazz standards album until 2018's smoky, intimately rendered Sister Orchid. The closest the idiosyncratic singer/songwriter had gotten previously was her brightly attenuated 2009 Doris Day tribute, Normal as Blueberry Pie, which found her investigating songs heavily associated with the iconic actress and singer. Similarly, on 2015's My Weekly Reader, McKay took on some of her favorite '60s pop tunes by bands like the Kinks, Herman's Hermits, Moby Grape, and others. Here, McKay takes a deftly straightforward approach, performing a set of well-chosen standards that wouldn't be out of place on an album by Blossom Dearie (another McKay touchstone) from the 1950s. McKay, who arranged and played all of the songs on Sister Orchid, recorded the album in New York with engineer Chris Allen. Allen has worked with a bevy of jazz, folk, and pop artists including Kurt Elling, José James, Ingrid Michaelson, Andrew Bird, and others, and brings a soft, natural warmth that never interferes with McKay's performance. Primarily, these are spare arrangements, often just McKay accompanying herself on piano, as on the haunting "Angel Eyes." Elsewhere, as on her dusky reading of "Where or When," she weaves in a mournful cello. There are also jaunty bits of ukulele, as on "Lazybones," which also features her overdubbed backing vocals. The Broadway-tested McKay also displays her love of cabaret as she intersperses crowd chatter and clinking glasses to theatrical effect on "Everything Happens to Me." Despite her penchant for artifice, McKay reveals her strong musical chops on Sister Orchid, launching into a mad-eyed boogie-woogie section on "Where or When" and delivering a spine-tingling, synth-accented take on "In a Sentimental Mood" that conjures the neon-soaked atmosphere of David Lynch's Twin Peaks. (Matt Collar, allmusic.com)
Скачивание доступно после регистрации!!
Приватный:
Нет (DHT включён)
Размер:
162.71 Мб (170,611,250 байт) » файлов: 14
Участники:
0 раздают, 0 качают (0 участников всего)
Внешние участники:
12 раздают, 4 качают (16 участников всего) [ Обновить ]
07:21
17
Нет комментариев. Ваш будет первым!