Поиск

(Vocal Jazz) [WEB] Lauren Henderson (feat. Terri Lyne Carrington) - Armame - 2018, FLAC (tracks), lossless

(Vocal Jazz) [WEB] Lauren Henderson (feat. Terri Lyne Carrington) - Armame - 2018, FLAC (tracks), lossless
Треклист:
' Á R M A M E
' LAUREN HENDERSON
'
Жанр: Vocal Jazz
Год издания: 2018
Издатель (лейбл): Brontosaurus Records
Страна исполнителя: USA
Аудиокодек: FLAC (*.flac)
Тип рипа: tracks
Битрейт аудио: lossless
Продолжительность: 64:54
Источник (релизер): WEB
Наличие сканов: нет
ТРЕКЛИСТ:
01. The Great City
02. To Wisdom the Prize
03. Love Is a Losing Game
04. Let Me Love You
05. Tanto Amor
06. The Old Country
07. Inside a Silent Tear
08. El Ritmo
09. Better Days
10. Ármame
11. Open Your Eyes
12. We're Still Friends
13. Todo Tiene Su Final
 
Лог проверки качества
AUDIOCHECKER v2.0 beta (build 457) - by Dester - opdester@freemail.hu
~~~~~~~~~~~~~~~~~~~~~~~~~~~~~~~~~~
-=== DO NOT EDIT THIS FILE! ===-
Path: ...\Lauren Henderson - Armame (2018) [FLAC]
01 -=- 01 - The Great City.flac -=- CDDA (100%)
02 -=- 02 - To Wisdom the Prize.flac -=- CDDA (100%)
03 -=- 03 - Love Is a Losing Game.flac -=- CDDA (100%)
04 -=- 04 - Let Me Love You.flac -=- CDDA (100%)
05 -=- 05 - Tanto Amor.flac -=- CDDA (100%)
06 -=- 06 - The Old Country.flac -=- CDDA (100%)
07 -=- 07 - Inside a Silent Tear.flac -=- CDDA (100%)
08 -=- 08 - El Ritmo.flac -=- CDDA (100%)
09 -=- 09 - Better Days.flac -=- CDDA (100%)
10 -=- 10 - Armame.flac -=- CDDA (100%)
11 -=- 11 - Open Your Eyes.flac -=- CDDA (100%)
12 -=- 12 - We're Still Friends.flac -=- CDDA (100%)
13 -=- 13 - Todo Tiene Su Final.flac -=- CDDA (100%)
Summary 100,00% CDDA
4305684
••••••••••
foobar2000 1.3.12 / Замер динамического диапазона (DR) 1.1.1
Дата отчёта: 2018-04-26 10:57:31
--------------------------------------------------------------------------------
Анализ: Lauren Henderson / Armame
--------------------------------------------------------------------------------
DR Пики RMS Продолжительность трека
--------------------------------------------------------------------------------
DR9 -0.50 дБ -10.80 дБ 5:07 01-The Great City
DR7 -0.50 дБ -10.26 дБ 4:47 02-To Wisdom the Prize
DR8 -0.50 дБ -11.73 дБ 3:33 03-Love Is a Losing Game
DR9 -0.50 дБ -11.99 дБ 5:13 04-Let Me Love You
DR10 -0.50 дБ -11.36 дБ 4:29 05-Tanto Amor
DR8 -0.50 дБ -10.07 дБ 5:32 06-The Old Country
DR9 -0.50 дБ -12.38 дБ 3:08 07-Inside a Silent Tear
DR8 -0.50 дБ -9.92 дБ 5:07 08-El Ritmo
DR7 -0.50 дБ -9.78 дБ 4:54 09-Better Days
DR9 -0.50 дБ -11.71 дБ 6:20 10-Armame
DR9 -0.50 дБ -11.17 дБ 4:55 11-Open Your Eyes
DR10 -0.50 дБ -12.46 дБ 6:53 12-We're Still Friends
DR7 -0.50 дБ -9.50 дБ 4:57 13-Todo Tiene Su Final
--------------------------------------------------------------------------------
Количество треков: 13
Реальные значения DR: DR8
Частота: 44100 Гц
Каналов: 2
Разрядность: 16
Битрейт: 792 кбит/с
Кодек: FLAC
================================================================================
 
Об альбоме
By the end of 2018 Lauren Henderson will have not one, but two, releases. The first of these is Ármame (the title translates as “Arm Me” (as from a broken heart), and the subtitle “Songs of Love and Loss”) and it is a recording that showcases the African as well as the Hispanic side of her fascinating heritage. This has also made for a most fascinating journey where Miss Henderson has traversed a breathtaking musical topography, an expedition she charted for herself from a very young age, which, in turn, resulted in a debut recording in 2011 that bore just her name. In seven years – a very short time for a vocalist so young to show such outstanding maturity – Miss Henderson’s voice has developed into a smoky, yet lyrical one with a range that enables her to move effortlessly from a high soprano to a blossoming contralto. With this taking place at such a remarkably young age, there is every surety that a greater fullness is yet to follow.
In the unusually echoey acoustic of the studio Miss Henderson shines amid a starry constellation of musicians, among whom are alto saxophonist Godwin Louis, trumpeter Josh Evans, drummer Terri Lyne Carrington – heard here as vocalist only, on Larry Willis and Terese Epp’s erudite “To Wisdom the Prize” and the uplifting “Better Days” from Richard Holland’s songbook. And then there is Sullivan Fortner, who has rapidly become quite ubiquitous, who leads an impressive ensemble – including a breathtaking rhythm section of Eric Wheeler, Joe Saylor and Nanny Assis – and who helps Miss Henderson sculpt the beguiling songs, contributing many breathtaking inventions along the way.
The music begins with “The Great City” and lyrics in Spanish by Miss Henderson. The song’s swiftly changing moods are each surely caught by Miss Henderson in precisely a couple of minutes or so. The complexities of the song demands virtuosity from its performers and from the listener too, as he or she adjusts to a new mood only to be required to move to a new one shortly after. This is, indeed good practice especially for the listener who is treated to virtuosity of an exquisite kind by the chameleonic Miss Henderson.
Her song “Tanto Amor”, for instance is twilit and melancholy, written in a profoundly thoughtful moment no doubt. This recording would suggest that Miss Henderson picked the perfect sounding board to perform it in the form of Mr. Fortner who is infinitely sensitive to every slight inflection of colour in Miss Henderson’s voice as well as to the timbral presence of the rest of the musical cast. These are just a couple of instances on a memorable, hour-long musical exposition by Miss Henderson where the listener ought to expect a full voice that also combines great tranquility. And this is what makes Ármame a disc to simply die for… (Raul da Gama)
 
Состав
Lauren Henderson: vocals
Godwin Louis: alto saxophone
Josh Evans: trumpet
Sullivan Fortner: piano, Fender Rhodes
Nick Tannura: guitar
Eric Wheeler: bass
Joe Saylor: drums
Nanny Assis: percussion
& Terri Lyne Carrington: vocals (2, 9)
Скачивание доступно после регистрации!!
Приватный:
Нет (DHT включён)
Размер:
352.91 Мб (370,055,291 байт) » файлов: 15
Участники:
0 раздают, 0 качают (0 участников всего)
Внешние участники:
14 раздают, 5 качают (19 участников всего) [ Обновить ]
07:13
6
Нет комментариев. Ваш будет первым!