Поиск

(Vocal Jazz, Swing) [WEB] Roberta Donnay & The Prohibition Mob Band - My Heart Belongs To Satchmo - 2018, FLAC (tracks), lossless

(Vocal Jazz, Swing) [WEB] Roberta Donnay & The Prohibition Mob Band - My Heart Belongs To Satchmo - 2018, FLAC (tracks), lossless
Треклист:
my Heart Belongs to Satchmo
ROBERTA ' DONNAY
& THE PROHIBITION MOB BAND
'
Жанр: Vocal Jazz, Swing
Год издания: 2018
Издатель (лейбл): Blujazz
Страна исполнителя: USA
Аудиокодек: FLAC (*.flac)
Тип рипа: tracks
Битрейт аудио: lossless
Продолжительность: 52:50
Источник (релизер): WEB
Наличие сканов: нет
Треклист:
01. Sugar (That Sugar Baby O' Mine)
02. My Bucket's Got A Hole In It
03. I'm In The Market For You
04. Ol' Man Mose
05. That's My Home
06. Basin Street Blues
07. Up A Lazy River
08. I'm A Ding Dong Daddy (From Dumas)
09. Do You Know What It Means To Miss New Orleans
10. On The Sunny Side Of The Street
11. Music Goes Round And Round
12. Sweet Georgia Brown
13. I'm Shootin' High
14. A Kiss To Build A Dream On
15. Pennies From Heaven
 
Лог проверки качества
AUDIOCHECKER v2.0 beta (build 457) - by Dester - opdester@freemail.hu
~~~~~~~~~~~~~~~~~~~~~~~~~~~~~~~~~~
-=== DO NOT EDIT THIS FILE! ===-
Path: ...\Roberta Donnay - My Heart Belongs To Satchmo (2018) [FLAC]
01 -=- 01 - Sugar (That Sugar Baby O' Mine).flac -=- CDDA (100%)
02 -=- 02 - My Bucket's Got A Hole In It.flac -=- CDDA (100%)
03 -=- 03 - I'm In The Market For You.flac -=- CDDA (100%)
04 -=- 04 - Ol' Man Mose.flac -=- CDDA (100%)
05 -=- 05 - That's My Home.flac -=- CDDA (100%)
06 -=- 06 - Basin Street Blues.flac -=- CDDA (100%)
07 -=- 07 - Up A Lazy River.flac -=- CDDA (99%)
08 -=- 08 - I'm A Ding Dong Daddy (From Dumas).flac -=- CDDA (100%)
09 -=- 09 - Do You Know What It Means To Miss New Orleans.flac -=- CDDA (100%)
10 -=- 10 - On The Sunny Side Of The Street.flac -=- CDDA (100%)
11 -=- 11 - Music Goes Round And Round.flac -=- CDDA (100%)
12 -=- 12 - Sweet Georgia Brown.flac -=- CDDA (100%)
13 -=- 13 - I'm Shootin' High.flac -=- CDDA (100%)
14 -=- 14 - A Kiss To Build A Dream On.flac -=- CDDA (100%)
15 -=- 15 - Pennies From Heaven.flac -=- CDDA (100%)
Summary 99,93% CDDA
116266084
••••••••••
foobar2000 1.3.12 / Замер динамического диапазона (DR) 1.1.1
Дата отчёта: 2018-04-28 14:16:16
--------------------------------------------------------------------------------
Анализ: Roberta Donnay & The Prohibition Mob Band / My Heart Belongs To Satchmo
--------------------------------------------------------------------------------
DR Пики RMS Продолжительность трека
--------------------------------------------------------------------------------
DR7 -0.09 дБ -9.05 дБ 3:18 01-Sugar (That Sugar Baby O' Mine)
DR7 -0.13 дБ -8.69 дБ 4:05 02-My Bucket's Got A Hole In It
DR8 -0.13 дБ -10.04 дБ 3:23 03-I'm In The Market For You
DR6 -0.09 дБ -7.36 дБ 3:11 04-Ol' Man Mose
DR9 -0.13 дБ -11.26 дБ 3:10 05-That's My Home
DR8 -0.12 дБ -9.68 дБ 4:16 06-Basin Street Blues
DR8 -0.12 дБ -10.14 дБ 3:39 07-Up A Lazy River
DR8 -0.09 дБ -9.31 дБ 2:36 08-I'm A Ding Dong Daddy (From Dumas)
DR10 -0.13 дБ -13.30 дБ 5:36 09-Do You Know What It Means To Miss New Orleans
DR8 -0.10 дБ -10.42 дБ 3:17 10-On The Sunny Side Of The Street
DR7 -0.12 дБ -9.16 дБ 2:56 11-Music Goes Round And Round
DR8 -0.12 дБ -9.45 дБ 2:39 12-Sweet Georgia Brown
DR8 -0.12 дБ -10.14 дБ 3:16 13-I'm Shootin' High
DR9 -0.15 дБ -12.12 дБ 3:34 14-A Kiss To Build A Dream On
DR10 -0.11 дБ -11.63 дБ 3:53 15-Pennies From Heaven
--------------------------------------------------------------------------------
Количество треков: 15
Реальные значения DR: DR8
Частота: 44100 Гц
Каналов: 2
Разрядность: 16
Битрейт: 820 кбит/с
Кодек: FLAC
================================================================================
 
Об альбоме
Roberta Donnay & the Prohibition Mob Band, based out of San Francisco release "My Heart Belongs To Satchmo", is a tribute to Louis Armstrong's Hot Five and Hot Seven Band's early recordings.
After two very enjoyable CDs of music from the 1920s-30s, Roberta Donnay and her Prohibition Mob Band continue their exploration of early jazz and swing with a tribute to one of the most influential figures in all of jazz. Donnay is possibly the first female singer to record a full-length project devoted exclusively to Louis Armstrong.
For My Heart Belongs To Satchmo, Roberta Donnay & the Prohibition Mob Band revive 15 songs from Armstrong's career. Avoiding the obvious hits, Donnay performs both superior obscurities and personal favorites.
"'My Heart Belongs To Satchmo' is such a joyful project for me," adds Donnay, "I wanted to capture the heart of Satchmo and the love that we have of his music." Ms. Donnay, her arrangers, and the musicians of the Prohibition Mob Band succeed at paying a loving tribute to the great Satchmo. - Scott Yanow
 
Состав

Roberta Donnay - vocals
John R. Burr - piano
Rich Armstrong - trumpet, cornet
Sheldon Brown - clarinet
Mike Rinta - trombone
Matt Baxter - guitar
Sam Bevan - bass
Deszon Claiborne - drums
Приватный:
Нет (DHT включён)
Размер:
331.84 Мб (347,963,696 байт) » файлов: 17
Участники:
0 раздают, 0 качают (0 участников всего)
Внешние участники:
3 раздают, 1 качают (4 участников всего) [ Обновить ]
Нет сидеров - пишите личное сообщение M0p94ok. Не нравятся торренты? Участники группы Pro-jazz Club могут заказать прямую ссылку на скачивание из облака.
No seeders - write a personal message to M0p94ok. Don't like torrents? Members of Pro-jazz Club group can order a direct download link from the cloud.
07:14
32
Нет комментариев. Ваш будет первым!