Поиск

(Vocal Jazz) [CD] Gregory Porter - Take Me To The Alley - 2016, FLAC (tracks+.cue), lossless

(Vocal Jazz) [CD] Gregory Porter - Take Me To The Alley - 2016, FLAC (tracks+.cue), lossless
Треклист:
Gregory Porter / Take Me To The Alley Жанр: Vocal Jazz
Носитель: CD
Страна-производитель диска (релиза): EU
Год издания: 2016
Издатель (лейбл): Decca/Blue Note
Номер по каталогу: 0602547814432
Аудиокодек: FLAC (*.flac)
Тип рипа: tracks+.cue
Битрейт аудио: lossless
Продолжительность: 00:51:20
Источник (релизер): собственный рип
Наличие сканов в содержимом раздачи: да (с автографом маэстро!)
Треклист:
01. Holding On (5:02)
02. Don't Lose Your Steam (3:18)
03. Take Me To The Alley (5:17)
04. Daydream (3:52)
05. Consequence Of Love (3:20)
06. In Fashion (4:35)
07. More Than A Woman (3:31)
08. In Heaven (4:18)
09. Insanity (5:37)
10. Don't Be A Fool (4:32)
11. Fan The Flames (4:12)
12. French African Queen (3:46)

 
Лог создания рипа
Exact Audio Copy V1.3 from 2. September 2016
EAC extraction logfile from 22. April 2018, 18:07
Gregory Porter / Take Me to the Alley
Used drive : PIONEER DVD-RW DVR-218L Adapter: 1 ID: 0
Read mode : Secure
Utilize accurate stream : Yes
Defeat audio cache : Yes
Make use of C2 pointers : No
Read offset correction : 6
Overread into Lead-In and Lead-Out : No
Fill up missing offset samples with silence : Yes
Delete leading and trailing silent blocks : No
Null samples used in CRC calculations : Yes
Used interface : Native Win32 interface for Win NT & 2000
Gap handling : Appended to previous track
Used output format : User Defined Encoder
Selected bitrate : 896 kBit/s
Quality : High
Add ID3 tag : No
Command line compressor : C:\Program Files (x86)\Exact Audio Copy\Flac\flac.exe
Additional command line options : -V -7 -T "Genre=%genre%" -T "Artist=%artist%" -T "Title=%title%" -T "Album=%albumtitle%" -T "Date=%year%" -T "Tracknumber=%tracknr%" -T "Comment=%comment%" %source%
TOC of the extracted CD
Track | Start | Length | Start sector | End sector
---------------------------------------------------------
1 | 0:00.00 | 5:02.05 | 0 | 22654
2 | 5:02.05 | 3:17.74 | 22655 | 37503
3 | 8:20.04 | 5:16.59 | 37504 | 61262
4 | 13:36.63 | 3:51.70 | 61263 | 78657
5 | 17:28.58 | 3:20.07 | 78658 | 93664
6 | 20:48.65 | 4:34.50 | 93665 | 114264
7 | 25:23.40 | 3:31.25 | 114265 | 130114
8 | 28:54.65 | 4:18.08 | 130115 | 149472
9 | 33:12.73 | 5:37.21 | 149473 | 174768
10 | 38:50.19 | 4:31.61 | 174769 | 195154
11 | 43:22.05 | 4:12.03 | 195155 | 214057
12 | 47:34.08 | 3:45.45 | 214058 | 230977
Track 1
Filename D:\_МУЗЫКА\Gregory Porter - Take Me to the Alley (2016)\01 Holding On.wav
Pre-gap length 0:00:02.00
Peak level 94.0 %
Extraction speed 1.1 X
Track quality 100.0 %
Test CRC BAD4581E
Copy CRC BAD4581E
Accurately ripped (confidence 191) [FC896169] (AR v2)
Copy OK
Track 2
Filename D:\_МУЗЫКА\Gregory Porter - Take Me to the Alley (2016)\02 Don’t Lose Your Steam.wav
Peak level 94.1 %
Extraction speed 1.2 X
Track quality 100.0 %
Test CRC 9F36369B
Copy CRC 9F36369B
Accurately ripped (confidence 191) [257AD698] (AR v2)
Copy OK
Track 3
Filename D:\_МУЗЫКА\Gregory Porter - Take Me to the Alley (2016)\03 Take Me to the Alley.wav
Peak level 92.3 %
Extraction speed 1.4 X
Track quality 100.0 %
Test CRC A4C7444F
Copy CRC A4C7444F
Accurately ripped (confidence 191) [F5983ABD] (AR v2)
Copy OK
Track 4
Filename D:\_МУЗЫКА\Gregory Porter - Take Me to the Alley (2016)\04 Daydream.wav
Peak level 93.0 %
Extraction speed 1.4 X
Track quality 100.0 %
Test CRC AB77520C
Copy CRC AB77520C
Accurately ripped (confidence 191) [1C6B03A1] (AR v2)
Copy OK
Track 5
Filename D:\_МУЗЫКА\Gregory Porter - Take Me to the Alley (2016)\05 Consequence of Love.wav
Peak level 93.7 %
Extraction speed 1.4 X
Track quality 100.0 %
Test CRC 5EA1E33C
Copy CRC 5EA1E33C
Accurately ripped (confidence 191) [7E4F1DA8] (AR v2)
Copy OK
Track 6
Filename D:\_МУЗЫКА\Gregory Porter - Take Me to the Alley (2016)\06 In Fashion.wav
Peak level 94.0 %
Extraction speed 1.6 X
Track quality 100.0 %
Test CRC FC248352
Copy CRC FC248352
Accurately ripped (confidence 192) [8C306AA8] (AR v2)
Copy OK
Track 7
Filename D:\_МУЗЫКА\Gregory Porter - Take Me to the Alley (2016)\07 More Than a Woman.wav
Peak level 93.4 %
Extraction speed 1.6 X
Track quality 100.0 %
Test CRC BFCC1AAF
Copy CRC BFCC1AAF
Accurately ripped (confidence 192) [8E95310A] (AR v2)
Copy OK
Track 8
Filename D:\_МУЗЫКА\Gregory Porter - Take Me to the Alley (2016)\08 In Heaven.wav
Peak level 93.3 %
Extraction speed 1.8 X
Track quality 100.0 %
Test CRC 82361AB4
Copy CRC 82361AB4
Accurately ripped (confidence 190) [968E489D] (AR v2)
Copy OK
Track 9
Filename D:\_МУЗЫКА\Gregory Porter - Take Me to the Alley (2016)\09 Insanity.wav
Peak level 94.9 %
Extraction speed 1.7 X
Track quality 99.9 %
Test CRC C9CF3F04
Copy CRC C9CF3F04
Accurately ripped (confidence 191) [029057AD] (AR v2)
Copy OK
Track 10
Filename D:\_МУЗЫКА\Gregory Porter - Take Me to the Alley (2016)\10 Don’t Be a Fool.wav
Peak level 92.8 %
Extraction speed 1.9 X
Track quality 100.0 %
Test CRC 719BE4CB
Copy CRC 719BE4CB
Accurately ripped (confidence 191) [3C65A0A1] (AR v2)
Copy OK
Track 11
Filename D:\_МУЗЫКА\Gregory Porter - Take Me to the Alley (2016)\11 Fan the Flames.wav
Peak level 96.1 %
Extraction speed 2.0 X
Track quality 100.0 %
Test CRC E38CAD21
Copy CRC E38CAD21
Accurately ripped (confidence 190) [0C845DB3] (AR v2)
Copy OK
Track 12
Filename D:\_МУЗЫКА\Gregory Porter - Take Me to the Alley (2016)\12 French African Queen.wav
Peak level 95.7 %
Extraction speed 2.0 X
Track quality 100.0 %
Test CRC F7561982
Copy CRC F7561982
Accurately ripped (confidence 189) [39E8B410] (AR v2)
Copy OK
All tracks accurately ripped
No errors occurred
End of status report
---- CUETools DB Plugin V2.1.6
[CTDB TOCID: XFqhReuximSTncqzTdGXPxfd1o0-] found
Submit result: XFqhReuximSTncqzTdGXPxfd1o0- has been confirmed
Track | CTDB Status
1 | (780/783) Accurately ripped
2 | (777/783) Accurately ripped
3 | (779/783) Accurately ripped
4 | (779/783) Accurately ripped
5 | (779/783) Accurately ripped
6 | (780/783) Accurately ripped
7 | (777/783) Accurately ripped, or (2/783) differs in 23 samples @00:53:40-00:53:41
8 | (775/783) Accurately ripped, or (2/783) differs in 57 samples @04:03:37
9 | (779/783) Accurately ripped
10 | (777/783) Accurately ripped, or (3/783) differs in 173 samples @00:09:31
11 | (773/783) Accurately ripped, or (2/783) differs in 45 samples @01:45:23
12 | (778/783) Accurately ripped
==== Log checksum 9B4774BEF218E54927F6A164280F6AD3BEB9136ECB9D0C0A40CB6B66E2DC2F39 ====
 
Содержание индексной карты (.CUE)
REM GENRE "Vocal Jazz"
REM DATE 2016
REM DISCID 8F0C070C
REM COMMENT "ExactAudioCopy v1.3"
PERFORMER "Gregory Porter"
TITLE "Take Me to the Alley"
REM COMPOSER ""
FILE "01 Holding On.wav" WAVE
TRACK 01 AUDIO
TITLE "Holding On"
PERFORMER "Gregory Porter"
REM COMPOSER ""
INDEX 01 00:00:00
FILE "02 Don’t Lose Your Steam.wav" WAVE
TRACK 02 AUDIO
TITLE "Don’t Lose Your Steam"
PERFORMER "Gregory Porter"
REM COMPOSER ""
INDEX 01 00:00:00
FILE "03 Take Me to the Alley.wav" WAVE
TRACK 03 AUDIO
TITLE "Take Me to the Alley"
PERFORMER "Gregory Porter"
REM COMPOSER ""
INDEX 01 00:00:00
FILE "04 Daydream.wav" WAVE
TRACK 04 AUDIO
TITLE "Daydream"
PERFORMER "Gregory Porter"
REM COMPOSER ""
INDEX 01 00:00:00
FILE "05 Consequence of Love.wav" WAVE
TRACK 05 AUDIO
TITLE "Consequence of Love"
PERFORMER "Gregory Porter"
REM COMPOSER ""
INDEX 01 00:00:00
FILE "06 In Fashion.wav" WAVE
TRACK 06 AUDIO
TITLE "In Fashion"
PERFORMER "Gregory Porter"
REM COMPOSER ""
INDEX 01 00:00:00
FILE "07 More Than a Woman.wav" WAVE
TRACK 07 AUDIO
TITLE "More Than a Woman"
PERFORMER "Gregory Porter"
REM COMPOSER ""
INDEX 01 00:00:00
FILE "08 In Heaven.wav" WAVE
TRACK 08 AUDIO
TITLE "In Heaven"
PERFORMER "Gregory Porter"
REM COMPOSER ""
INDEX 01 00:00:00
FILE "09 Insanity.wav" WAVE
TRACK 09 AUDIO
TITLE "Insanity"
PERFORMER "Gregory Porter"
REM COMPOSER ""
INDEX 01 00:00:00
FILE "10 Don’t Be a Fool.wav" WAVE
TRACK 10 AUDIO
TITLE "Don’t Be a Fool"
PERFORMER "Gregory Porter"
REM COMPOSER ""
INDEX 01 00:00:00
FILE "11 Fan the Flames.wav" WAVE
TRACK 11 AUDIO
TITLE "Fan the Flames"
PERFORMER "Gregory Porter"
REM COMPOSER ""
INDEX 01 00:00:00
FILE "12 French African Queen.wav" WAVE
TRACK 12 AUDIO
TITLE "French African Queen"
PERFORMER "Gregory Porter"
REM COMPOSER ""
INDEX 01 00:00:00
 
Лог проверки качества
-----------------------
DON'T MODIFY THIS FILE
-----------------------
PERFORMER: auCDtect Task Manager, ver. 1.5.1RC6 build 1.5.1.7
Copyright (c) 2008-2010 y-soft. All rights reserved
http://y-soft.org
ANALYZER: auCDtect: CD records authenticity detector, version 0.8.2
Copyright (c) 2004 Oleg Berngardt. All rights reserved.
Copyright (c) 2004 Alexander Djourik. All rights reserved.
FILE: 12 French African Queen.flac
Size: 25176446 Hash: B398E6B46981D670713DA94018D59D76 Accuracy: -m0
Conclusion: CDDA 100%
Signature: 6DA22848CC18B957EB3975E0B11730C343D76DC6
FILE: 11 Fan the Flames.flac
Size: 27908641 Hash: A81F56C46927E6E83087038799C4C78F Accuracy: -m0
Conclusion: CDDA 100%
Signature: 7DB84850D47D83571DDF19DAAB6063B3DC068243
FILE: 10 Don’t Be a Fool.flac
Size: 25684498 Hash: CE855A1B1F25273061A56A34631C16BF Accuracy: -m0
Conclusion: CDDA 100%
Signature: 7534DCD35D06C5216466079D0C879DC11818639E
FILE: 09 Insanity.flac
Size: 33531127 Hash: 71A75033C5241EC4E0220210A720F1D9 Accuracy: -m0
Conclusion: CDDA 100%
Signature: BB8B580BFA50BB9C96A65E7E34036BCAAD7D29A0
FILE: 08 In Heaven.flac
Size: 24612428 Hash: E5DBC2B8F8868764A49991EFDDB29D08 Accuracy: -m0
Conclusion: CDDA 99%
Signature: 2E2A3A1CC54E1C0C22B0AF1249D7B4BD548D4D88
FILE: 07 More Than a Woman.flac
Size: 20395776 Hash: 7E1FFC13D149C49E97ABF989DCA9E609 Accuracy: -m0
Conclusion: CDDA 99%
Signature: 0F0041970909926FB9B84CF82807EDD010FBEDBF
FILE: 06 In Fashion.flac
Size: 26820565 Hash: 3567DAEE8D0A3AC60B7363C6E31A9E32 Accuracy: -m0
Conclusion: CDDA 100%
Signature: BDF6A99D7FD50E4002E6EDEC5960C665E95C2CC6
FILE: 05 Consequence of Love.flac
Size: 19170567 Hash: EDAFA1820C655B0E5A4D1474D29FBE32 Accuracy: -m0
Conclusion: CDDA 100%
Signature: 90A4FCC3376CD9C6FF62441EF645AB7825EC6D79
FILE: 04 Daydream.flac
Size: 23212755 Hash: 00A170EF85143EC4A2AEB48501D5F55B Accuracy: -m0
Conclusion: CDDA 100%
Signature: B89B935DB0245291B0195464B7A21348920DF415
FILE: 03 Take Me to the Alley.flac
Size: 28056994 Hash: 73597A9F3344A39986EC823697ABA80D Accuracy: -m0
Conclusion: CDDA 100%
Signature: 59FE87595FBC6C6AADB2A5A94F0D008EC7AED8BA
FILE: 02 Don’t Lose Your Steam.flac
Size: 22944443 Hash: FE64BE2AC37CFBCDAD96ECFAF0B8EFEF Accuracy: -m0
Conclusion: CDDA 100%
Signature: 574199372B0590922E7458A05D43034A23071A70
FILE: 01 Holding On.flac
Size: 29711257 Hash: C41A0C601C02BE515E1F5938E07DE8FF Accuracy: -m0
Conclusion: CDDA 100%
Signature: 48A66190B02FB8924C0A12399A0D00BA21C68007
 
Об исполнителе (группе)
Приватный:
Нет (DHT включён)
Размер:
396.05 Мб (415,292,626 байт) » файлов: 29
Участники:
0 раздают, 0 качают (0 участников всего)
Внешние участники:
--- [ Обновить ]
07:12
2
Нет комментариев. Ваш будет первым!