Поиск

(Vocal Jazz) [WEB] Ida Landsberg - Jazz Sessions - 2018, FLAC (tracks), lossless

(Vocal Jazz) [WEB] Ida Landsberg - Jazz Sessions - 2018, FLAC (tracks), lossless
Треклист:
IDA LANDSBERG
' ' ' ' ' ' '' JAZZ
' ' SESSIONS Жанр: Vocal Jazz
Год издания: 2018
Издатель (лейбл): EQ Music
Страна исполнителя: Germany/Italy
Аудиокодек: FLAC (*.flac)
Тип рипа: tracks
Битрейт аудио: lossless
Продолжительность: 39:53
Источник (релизер): WEB
Наличие сканов: нет
Треклист:
1. Blue Moon
2. They Can't Take That Away from Me
3. Angel Eyes
4. Fly Me to the Moon
5. From This Moment On
6. Close to You
7. How High the Moon
8. Cry Me a River
9. Don't Take Your Love from Me
10. Night and Day
 
Лог проверки качества
AUDIOCHECKER v2.0 beta (build 457) - by Dester - opdester@freemail.hu
~~~~~~~~~~~~~~~~~~~~~~~~~~~~~~~~~~
-=== DO NOT EDIT THIS FILE! ===-
Path: ...\Ida Landsberg - Jazz Sessions (2018) [FLAC]
01 -=- 01 - Blue Moon.flac -=- CDDA (100%)
02 -=- 02 - They Can't Take That Away from Me.flac -=- CDDA (99%)
03 -=- 03 - Angel Eyes.flac -=- CDDA (100%)
04 -=- 04 - Fly Me to the Moon.flac -=- CDDA (100%)
05 -=- 05 - From This Moment On.flac -=- CDDA (100%)
06 -=- 06 - Close to You.flac -=- CDDA (100%)
07 -=- 07 - How High the Moon.flac -=- CDDA (100%)
08 -=- 08 - Cry Me a River.flac -=- CDDA (100%)
09 -=- 09 - Don't Take Your Love from Me.flac -=- CDDA (100%)
10 -=- 10 - Night and Day.flac -=- CDDA (100%)
Summary 99,90% CDDA
203119860
••••••••••
foobar2000 1.3.12 / Замер динамического диапазона (DR) 1.1.1
Дата отчёта: 2018-05-16 00:12:32
--------------------------------------------------------------------------------
Анализ: Ida Landsberg / Jazz Sessions
--------------------------------------------------------------------------------
DR Пики RMS Продолжительность трека
--------------------------------------------------------------------------------
DR9 -0.60 дБ -11.34 дБ 4:57 01-Blue Moon
DR8 -0.52 дБ -10.59 дБ 3:27 02-They Can't Take That Away from Me
DR10 -0.11 дБ -11.45 дБ 3:34 03-Angel Eyes
DR8 -0.33 дБ -10.83 дБ 4:20 04-Fly Me to the Moon
DR9 -0.49 дБ -10.54 дБ 3:41 05-From This Moment On
DR9 -0.57 дБ -11.47 дБ 4:09 06-Close to You
DR9 -0.44 дБ -11.53 дБ 3:42 07-How High the Moon
DR9 -0.65 дБ -11.94 дБ 3:43 08-Cry Me a River
DR9 -0.62 дБ -11.80 дБ 3:54 09-Don't Take Your Love from Me
DR9 -0.44 дБ -11.73 дБ 4:26 10-Night and Day
--------------------------------------------------------------------------------
Количество треков: 10
Реальные значения DR: DR9
Частота: 44100 Гц
Каналов: 2
Разрядность: 16
Битрейт: 820 кбит/с
Кодек: FLAC
================================================================================
 
Состав
Ida Landsberg - voice, percussion
Domenico Sanna - piano
Marco Guidolotti - baritone sax
Simone Salvatore - guitar
Dario Rosciglione - bass
Andrea Nunzi - drums
Приватный:
Нет (DHT включён)
Размер:
239.10 Мб (250,711,269 байт) » файлов: 12
Участники:
0 раздают, 0 качают (0 участников всего)
Внешние участники:
--- [ Обновить ]
07:19
5
Нет комментариев. Ваш будет первым!