Поиск

(Vocal Jazz, Pop) [WEB] Sylvia Bennett (feat. Nathan East, Rick Braun) - I Wish You Love - 2018, FLAC (tracks), lossless

(Vocal Jazz, Pop) [WEB] Sylvia Bennett (feat. Nathan East, Rick Braun) - I Wish You Love - 2018, FLAC (tracks), lossless
Треклист:
SYLVIA BENNETT
I Wish You Love'
Жанр: Vocal Jazz, Pop
Год издания: 2018
Издатель (лейбл): Out of Sight Music
Страна исполнителя: USA
Аудиокодек: FLAC (*.flac)
Тип рипа: tracks
Битрейт аудио: lossless
Продолжительность: 43:08
Источник (релизер): WEB
Наличие сканов: нет
Треклист:
01. Bésame Mucho
02. It's Impossible (feat. Nathan East)
03. C'est Magnifique
04. I Wish You Love
05. Sway
06. Autumn Leaves
07. Beyond the Sea
08. A Man and A Woman
09. La Vie En Rose
10. I Will Wait For You
11. C'est Si Bon (feat. Rick Braun)
12. Moulin Rouge
13. Be True To Me
14. I Wish You Love (Radio Edit)
 
Лог проверки качества
AUDIOCHECKER v2.0 beta (build 457) - by Dester - opdester@freemail.hu
~~~~~~~~~~~~~~~~~~~~~~~~~~~~~~~~~~
-=== DO NOT EDIT THIS FILE! ===-
Path: ...\Sylvia Bennett - I Wish You Love (2018) [FLAC]
01 -=- 01 - Besame Mucho (English Version).flac -=- CDDA (99%)
02 -=- 02 - It's Impossible (feat Nathan East).flac -=- CDDA (100%)
03 -=- 03 - C'est Magnifique (English Version).flac -=- CDDA (100%)
04 -=- 04 - I Wish You Love.flac -=- CDDA (99%)
05 -=- 05 - Sway.flac -=- CDDA (100%)
06 -=- 06 - Autumn Leaves.flac -=- CDDA (100%)
07 -=- 07 - Beyond the Sea.flac -=- CDDA (99%)
08 -=- 08 - A Man and a Woman.flac -=- CDDA (100%)
09 -=- 09 - La Vie En Rose (English Version).flac -=- CDDA (100%)
10 -=- 10 - I Will Wait for You.flac -=- CDDA (100%)
11 -=- 11 - C'est Si Bon (English Version) feat Rick Braun.flac -=- CDDA (100%)
12 -=- 12 - Moulin Rouge (English Version).flac -=- CDDA (100%)
13 -=- 13 - Be True to Me (Sabor a Mi).flac -=- CDDA (100%)
14 -=- 14 - I Wish You Love (Radio Edit).flac -=- CDDA (99%)
Summary 99,71% CDDA
238399092
••••••••••
foobar2000 1.3.12 / Замер динамического диапазона (DR) 1.1.1
Дата отчёта: 2018-05-14 17:52:10
--------------------------------------------------------------------------------
Анализ: Sylvia Bennett / I Wish You Love
--------------------------------------------------------------------------------
DR Пики RMS Продолжительность трека
--------------------------------------------------------------------------------
DR7 -0.20 дБ -7.96 дБ 3:14 01-Besame Mucho (English Version)
DR8 -0.20 дБ -10.81 дБ 3:05 02-It's Impossible (feat Nathan East)
DR8 -0.20 дБ -9.66 дБ 2:52 03-C'est Magnifique (English Version)
DR7 -0.25 дБ -9.95 дБ 3:44 04-I Wish You Love
DR7 -0.20 дБ -8.36 дБ 2:39 05-Sway
DR8 -0.11 дБ -10.64 дБ 3:28 06-Autumn Leaves
DR7 -0.20 дБ -9.39 дБ 3:22 07-Beyond the Sea
DR7 -0.20 дБ -8.88 дБ 2:39 08-A Man and a Woman
DR7 -0.20 дБ -8.81 дБ 2:44 09-La Vie En Rose (English Version)
DR7 -0.20 дБ -8.66 дБ 3:37 10-I Will Wait for You
DR9 -0.20 дБ -11.23 дБ 3:16 11-C'est Si Bon (English Version) feat Rick Braun
DR9 -0.20 дБ -10.53 дБ 2:20 12-Moulin Rouge (English Version)
DR7 -0.20 дБ -8.47 дБ 2:54 13-Be True to Me (Sabor a Mi)
DR6 -0.24 дБ -8.36 дБ 3:14 14-I Wish You Love (Radio Edit)
--------------------------------------------------------------------------------
Количество треков: 14
Реальные значения DR: DR7
Частота: 44100 Гц
Каналов: 2
Разрядность: 16
Битрейт: 923 кбит/с
Кодек: FLAC
================================================================================
 
Об альбоме
International Recording Artist Sylvia Bennett sings in the key of love with her eleventh studio album titled I Wish You Love. In her own words, "When you talk about love you have to talk about all of it - the joy and the heartache. I Wish You Love is one amazing ride taking you through all the emotions of love."
Because it's all we need... because it's the answer and because it never fails. These are only but a few of the reasons why our favorite songbird, vocalist Sylvia Bennett, wishes us Love on her latest outing of recorded musical bliss! I WISH YOU LOVE is simmering to the brim with delicious contemporary musical treats. Dipping into her collection of favorites from the classic songs that she's romanced over the years in several languages; this intentional album of love songs blazes a new trail for our tireless, crooning crusader... the lusciously arranged set by longtime producing partner, Hal S. Batt, is all in English and features some amazing special guests including the one and only bass master, Nathan East on an impeccable cover of "It's Impossible" and Chart-topping Smooth Jazz trumpeter Rick Braun on a highly enjoyable run of "C'est Si Bon," or as we like to call it, "C'est Si Braun." Really, it's all you need to get by. Love that is… and this wonderful assortment of love songs falls into that category as well. Find out for yourself!
Скачивание доступно после регистрации!!
Приватный:
Нет (DHT включён)
Размер:
280.79 Мб (294,426,113 байт) » файлов: 16
Участники:
0 раздают, 0 качают (0 участников всего)
Внешние участники:
9 раздают, 3 качают (12 участников всего) [ Обновить ]
07:18
10
Нет комментариев. Ваш будет первым!