Поиск

(Vocal Jazz, Soul) [WEB] Abiah - Abiah Sings Nina - 2018, FLAC (tracks), lossless

(Vocal Jazz, Soul) [WEB] Abiah - Abiah Sings Nina - 2018, FLAC (tracks), lossless
Треклист:
ABIAH sings
N I N A
Жанр: Vocal Jazz, Soul
Год издания: 2018
Издатель (лейбл): Madoh Music
Страна исполнителя: USA
Аудиокодек: FLAC (*.flac)
Тип рипа: tracks
Битрейт аудио: lossless
Продолжительность: 36:26
Источник (релизер): WEB
Наличие сканов: нет
Треклист:
01. Black Is the Color of My True Love's Hair
02. Tell Me More and More and Then Some
03. Keeper of the Flame
04. Don't Smoke in Bed
05. See-Line Woman
06. My Man's Gone Now
07. Wild Is the Wind
08. Don't Let Me Be Misunderstood
09. I'm Just Like You
 
Лог проверки качества
-----------------------
DON'T MODIFY THIS FILE
-----------------------
PERFORMER: auCDtect Task Manager, ver. 1.6.0 RC1 build 1.6.0.1
Copyright (c) 2008-2010 y-soft. All rights reserved
http://y-soft.org
ANALYZER: auCDtect: CD records authenticity detector, version 0.8.2
Copyright (c) 2004 Oleg Berngardt. All rights reserved.
Copyright (c) 2004 Alexander Djourik. All rights reserved.
FILE: 09 - I'm Just Like You.flac
Size: 14849401 Hash: B6B44CC98078441DFC3F023DA14A1970 Accuracy: -m0
Conclusion: MPEG 79%
Signature: C41F9DE22CF10FC9371ACAB5AE829FEAF5CD3CFE
FILE: 08 - Don't Let Me Be Misunderstood.flac
Size: 22942976 Hash: 059EE1603E48FDAB42A9BBF459D73794 Accuracy: -m0
Conclusion: MPEG 100%
Signature: 7FE4D0932A18989201E06A560C3079A1FDF7CDC1
FILE: 07 - Wild Is the Wind.flac
Size: 23493849 Hash: 3EDFFD15281C3C5834E7D26AC69332BE Accuracy: -m0
Conclusion: MPEG 100%
Signature: 77BBAC48D6B8ADB072C5FEBDE13EA1AC7C83DAF9
FILE: 06 - My Man's Gone Now.flac
Size: 35935113 Hash: 64F1A174397A3B91377B6FCA411FAEAA Accuracy: -m0
Conclusion: MPEG 99%
Signature: 647876CCF6DE02C696201A4BAAC6C4EB7D800736
FILE: 05 - See-Line Woman.flac
Size: 18281980 Hash: B5CD03C8952F4A2A86ECE66F500D9D32 Accuracy: -m0
Conclusion: MPEG 95%
Signature: 00FDAAE17D5B9E28645A30AF3E8A9303B42584BD
FILE: 04 - Don't Smoke in Bed.flac
Size: 9536002 Hash: 24A19F7176E05CD2D39742CCA5250168 Accuracy: -m0
Conclusion: CDDA 58%
Signature: CE80ED06E5FDCD3508B57B87ABDC1ECF55F0527A
FILE: 03 - Keeper of the Flame.flac
Size: 25538264 Hash: 941F9AB7058E12F514B597E1C6EF0524 Accuracy: -m0
Conclusion: MPEG 99%
Signature: EF15856588454B3FF08C27461C4C49DF579DC2FC
FILE: 02 - Tell Me More and More and Then Some.flac
Size: 27230961 Hash: 3E6D566C542A5EFB685026C47B727784 Accuracy: -m0
Conclusion: MPEG 100%
Signature: 3B896D187AFF300CCE75398FB364F7E4797630F0
FILE: 01 - Black Is the Color of My True Love's Hair.flac
Size: 35909493 Hash: 72B2895E17465358C33ED8924322DA8A Accuracy: -m0
Conclusion: MPEG 95%
Signature: 8DB96AC9F8FAD513E66A60F678762BFFD68168D7
••••••••••
foobar2000 1.3.12 / Замер динамического диапазона (DR) 1.1.1
Дата отчёта: 2018-05-13 17:29:11
--------------------------------------------------------------------------------
Анализ: Abiah / Abiah Sings Nina
--------------------------------------------------------------------------------
DR Пики RMS Продолжительность трека
--------------------------------------------------------------------------------
DR8 -0.10 дБ -10.64 дБ 6:12 01-Black Is the Color of My True Love's Hair
DR6 0.00 дБ -8.32 дБ 4:12 02-Tell Me More and More and Then Some
DR9 0.00 дБ -11.95 дБ 4:16 03-Keeper of the Flame
DR12 -0.16 дБ -15.04 дБ 2:13 04-Don't Smoke in Bed
DR9 0.00 дБ -10.33 дБ 2:34 05-See-Line Woman
DR8 -0.01 дБ -10.06 дБ 6:07 06-My Man's Gone Now
DR8 -0.13 дБ -12.49 дБ 4:00 07-Wild Is the Wind
DR8 0.00 дБ -9.84 дБ 3:59 08-Don't Let Me Be Misunderstood
DR8 -0.12 дБ -11.16 дБ 2:59 09-I'm Just Like You
--------------------------------------------------------------------------------
Количество треков: 9
Реальные значения DR: DR8
Частота: 44100 Гц
Каналов: 2
Разрядность: 16
Битрейт: 651 кбит/с
Кодек: FLAC
================================================================================
 
Скриншоты спектра частот
 
Об альбоме
Nina Simone inspires me in unimaginable ways. Upon encountering her music as a college student, I was captivated by her voice and artistry. Her prodigious piano playing and unique voice spoke to my soul. When I heard her voice, I could see the text in an almost technicolor way. At that very time, I was studying the vocal art of text painting by composers such as Schubert and Schumann. From the first time I heard Nina, she was in full display in her vocal murals. I was transfixed and sought to do the same in my own music making. The beauty of her art was also congruent to the musicianship I was acquiring. Her aspirations of being a classical pianist were akin to mine as an opera singer of African descent. I believe we both found it daunting but attainable.
Much like Nina Simone, I am an anomaly and have found my journey challenging because I don't fit in the box so easily. It has caused me to create my own world much like she did. Exploring Nina's catalogue as example, was the first step of many to form a sound of my own using all the worlds I loved. Not that I was aiming to imitate her but rather find the freedom of expression she documented. My own journey has been a constant evolution to embrace my entire self, worrying less about titles but more on the truth. My truth would be whatever I felt convicted enough to record with an unparalleled honesty.
ABIAH Sings NINA is my homage to her great legacy and tutelage. I'm honored to have learned from her exquisite covers that ultimately became her own. In that same tradition, I aim to reimagine her contributions in hopes of elongating her influence and reaching depths of my own.
 
Состав
Abiah - vocals
Andre Chez Lewis - piano
Keith Witty - bass
Chris Eddleton - drums
David Rosenthal - guitar
Gil deFay - horns
Kristine Kruta -strings
Stephanie Yu - strings
Sarah Haines - strings
Kevin Lucero - strings
Christine Shieh - strings
Приватный:
Нет (DHT включён)
Размер:
204.10 Мб (214,010,006 байт) » файлов: 11
Участники:
0 раздают, 0 качают (0 участников всего)
Внешние участники:
5 раздают, 1 качают (6 участников всего) [ Обновить ]
07:17
12
Нет комментариев. Ваш будет первым!