Поиск

(Swing, Vocal Jazz, Vocal Group) [CD] The Ritz - The Ritz - 1987 (Denon), FLAC (tracks+.cue), lossless

(Swing, Vocal Jazz, Vocal Group) [CD] The Ritz - The Ritz - 1987 (Denon), FLAC (tracks+.cue), lossless
Треклист:




The Ritz - The Ritz - 1987 (Denon)

Жанр: Swing, Vocal Jazz, Vocal Group
Носитель: CD (Album)
Страна-производитель диска (релиза): Japan
Год издания оригинала: 1987
Издатель (лейбл): Denon
Номер по каталогу: 33CY-1839
Страна исполнителя (группы) :
Дата / место записи: Clinton Studios, New York on July 9 & 10, 1987
Аудио кодек: FLAC (*.flac)
Тип рипа: (tracks + .cue)
Битрейт аудио: lossless
Наличие сканов в содержимом раздачи: full scans, png, 300 dpi
Продолжительность: 58:03
Источник (релизер): Моя коллекция, мой рип
Трэклист:
1 All The Things You Are (Jerome Kern, Oscar Hammerstein II) 4:22
2 Saturday Night Fish Fry (Louis Jordan, Walsh Ellis) 4:00
3 Summer Burn (Sharon Harris) 4:15
4 Walkin' (Sharon Harris, Robert Stoloff) 3:45
5 It Never Entered My Mind (Richard Rodgers, Lorenz Hart) 5:27
6 Invitation (Bronislaw Kaper) 4:30
7 Scrapple From The Apple (Charlie Parker) 5:59
8 A Child Is Born (Thad Jones) 1:54
9 Old Folks (Willard Robison, Dedette Lee Hill) 5:09
10 The Golden Rule (Sharon Harris) 4:02
11 Ooh Yah (Robert Stoloff) 6:40
12 Music In The Air (Gigi Gryce, John Hendricks) 3:42
13 The Best Is Yet To Come/It Ain't Necessarily So (Cy Coleman, Carolyn Leigh/George & Ira Gershwin) 3:31
Digital recorded live to 2 tracks, with no mixing, editing or overdubbing
 
Лог создания рипа
Exact Audio Copy V1.3 from 2. September 2016
EAC extraction logfile from 5. May 2018, 17:26
The Ritz / The Ritz
Used drive : HL-DT-STDVDRAM GH24NSB0 Adapter: 1 ID: 0
Read mode : Secure
Utilize accurate stream : Yes
Defeat audio cache : Yes
Make use of C2 pointers : No
Read offset correction : 6
Overread into Lead-In and Lead-Out : No
Fill up missing offset samples with silence : Yes
Delete leading and trailing silent blocks : No
Null samples used in CRC calculations : Yes
Used interface : Native Win32 interface for Win NT & 2000
Gap handling : Appended to previous track
Used output format : User Defined Encoder
Selected bitrate : 1024 kBit/s
Quality : High
Add ID3 tag : No
Command line compressor : C:\Program Files (x86)\Exact Audio Copy\FLAC\FLAC.EXE
Additional command line options : -V -8 -T "Genre=%genre%" -T "Artist=%artist%" -T "Title=%title%" -T "Album=%albumtitle%" -T "Date=%year%" -T "Tracknumber=%tracknr%" -T "Comment=%comment%" %source%
TOC of the extracted CD
Track | Start | Length | Start sector | End sector
---------------------------------------------------------
1 | 0:00.00 | 4:25.25 | 0 | 19899
2 | 4:25.25 | 4:02.35 | 19900 | 38084
3 | 8:27.60 | 4:19.05 | 38085 | 57514
4 | 12:46.65 | 3:48.72 | 57515 | 74686
5 | 16:35.62 | 5:30.45 | 74687 | 99481
6 | 22:06.32 | 4:33.48 | 99482 | 120004
7 | 26:40.05 | 6:03.02 | 120005 | 147231
8 | 32:43.07 | 1:58.53 | 147232 | 156134
9 | 34:41.60 | 5:13.62 | 156135 | 179671
10 | 39:55.47 | 4:06.40 | 179672 | 198161
11 | 44:02.12 | 6:44.33 | 198162 | 228494
12 | 50:46.45 | 3:45.15 | 228495 | 245384
13 | 54:31.60 | 3:32.07 | 245385 | 261291
Track 1
Filename D:\Music\MG rips\The Ritz - The Ritz - 1987 (Denon 33CY-1839) [FLAC]\01 - All The Things You Are.wav
Pre-gap length 0:00:02.00
Peak level 78.4 %
Extraction speed 1.2 X
Track quality 100.0 %
Test CRC 152732DF
Copy CRC 152732DF
Accurately ripped (confidence 37) [FA1E9FA5] (AR v2)
Copy OK
Track 2
Filename D:\Music\MG rips\The Ritz - The Ritz - 1987 (Denon 33CY-1839) [FLAC]\02 - Saturday Night Fish Fry.wav
Pre-gap length 0:00:02.45
Peak level 83.2 %
Extraction speed 1.3 X
Track quality 100.0 %
Test CRC C6B44400
Copy CRC C6B44400
Accurately ripped (confidence 36) [E9F12AC9] (AR v2)
Copy OK
Track 3
Filename D:\Music\MG rips\The Ritz - The Ritz - 1987 (Denon 33CY-1839) [FLAC]\03 - Summer Burn.wav
Pre-gap length 0:00:02.43
Peak level 69.2 %
Extraction speed 1.4 X
Track quality 100.0 %
Test CRC 731702D6
Copy CRC 731702D6
Accurately ripped (confidence 37) [09CCB488] (AR v2)
Copy OK
Track 4
Filename D:\Music\MG rips\The Ritz - The Ritz - 1987 (Denon 33CY-1839) [FLAC]\04 - Walkin'.wav
Pre-gap length 0:00:02.70
Peak level 78.1 %
Extraction speed 1.4 X
Track quality 100.0 %
Test CRC 32ECF86C
Copy CRC 32ECF86C
Accurately ripped (confidence 37) [C1DD172D] (AR v2)
Copy OK
Track 5
Filename D:\Music\MG rips\The Ritz - The Ritz - 1987 (Denon 33CY-1839) [FLAC]\05 - It Never Entered My Mind.wav
Pre-gap length 0:00:02.57
Peak level 43.8 %
Extraction speed 1.6 X
Track quality 100.0 %
Test CRC 4395BC57
Copy CRC 4395BC57
Accurately ripped (confidence 37) [B748F1E3] (AR v2)
Copy OK
Track 6
Filename D:\Music\MG rips\The Ritz - The Ritz - 1987 (Denon 33CY-1839) [FLAC]\06 - Invitation.wav
Pre-gap length 0:00:02.25
Peak level 86.5 %
Extraction speed 1.7 X
Track quality 100.0 %
Test CRC 01955694
Copy CRC 01955694
Accurately ripped (confidence 37) [9B4B0FCD] (AR v2)
Copy OK
Track 7
Filename D:\Music\MG rips\The Ritz - The Ritz - 1987 (Denon 33CY-1839) [FLAC]\07 - Scrapple From The Apple.wav
Pre-gap length 0:00:03.10
Peak level 80.4 %
Extraction speed 1.9 X
Track quality 100.0 %
Test CRC A8897B6B
Copy CRC A8897B6B
Accurately ripped (confidence 37) [2DC7BB60] (AR v2)
Copy OK
Track 8
Filename D:\Music\MG rips\The Ritz - The Ritz - 1987 (Denon 33CY-1839) [FLAC]\08 - A Child Is Born.wav
Pre-gap length 0:00:03.10
Peak level 33.3 %
Extraction speed 1.6 X
Track quality 100.0 %
Test CRC CAA70B86
Copy CRC CAA70B86
Accurately ripped (confidence 37) [A916F18E] (AR v2)
Copy OK
Track 9
Filename D:\Music\MG rips\The Ritz - The Ritz - 1987 (Denon 33CY-1839) [FLAC]\09 - Old Folks.wav
Pre-gap length 0:00:04.35
Peak level 79.7 %
Extraction speed 2.0 X
Track quality 100.0 %
Test CRC 045896C5
Copy CRC 045896C5
Accurately ripped (confidence 37) [DCA93EB9] (AR v2)
Copy OK
Track 10
Filename D:\Music\MG rips\The Ritz - The Ritz - 1987 (Denon 33CY-1839) [FLAC]\10 - The Golden Rule.wav
Pre-gap length 0:00:02.42
Peak level 80.4 %
Extraction speed 2.0 X
Track quality 100.0 %
Test CRC 471CE4FF
Copy CRC 471CE4FF
Accurately ripped (confidence 37) [EC4E4EC6] (AR v2)
Copy OK
Track 11
Filename D:\Music\MG rips\The Ritz - The Ritz - 1987 (Denon 33CY-1839) [FLAC]\11 - Ooh Yah.wav
Pre-gap length 0:00:02.67
Peak level 78.7 %
Extraction speed 2.2 X
Track quality 100.0 %
Test CRC 59C8D0B2
Copy CRC 59C8D0B2
Accurately ripped (confidence 37) [A20B3189] (AR v2)
Copy OK
Track 12
Filename D:\Music\MG rips\The Ritz - The Ritz - 1987 (Denon 33CY-1839) [FLAC]\12 - Music In The Air.wav
Pre-gap length 0:00:03.28
Peak level 78.0 %
Extraction speed 2.2 X
Track quality 100.0 %
Test CRC 94EB530D
Copy CRC 94EB530D
Accurately ripped (confidence 37) [E9E55341] (AR v2)
Copy OK
Track 13
Filename D:\Music\MG rips\The Ritz - The Ritz - 1987 (Denon 33CY-1839) [FLAC]\13 - The Best Is Yet To Come,It Ain't Necessarily So.wav
Pre-gap length 0:00:02.73
Peak level 79.9 %
Extraction speed 2.2 X
Track quality 100.0 %
Test CRC EB626E6C
Copy CRC EB626E6C
Accurately ripped (confidence 36) [4B1A946D] (AR v2)
Copy OK
All tracks accurately ripped
No errors occurred
End of status report
==== Log checksum 69CE1CE2EFE6CA31012C97382F39A38F6B71FC5C307F6DAEB9AAF3479B5F00A9 ====
 
Содержание индексной карты (.CUE):
REM GENRE Jazz
REM DATE 1987
REM DISCID C90D9B0D
REM COMMENT "ExactAudioCopy v1.3"
PERFORMER "The Ritz"
TITLE "The Ritz"
REM COMPOSER ""
FILE "01 - All The Things You Are.wav" WAVE
TRACK 01 AUDIO
TITLE "All The Things You Are"
PERFORMER "The Ritz"
REM COMPOSER ""
INDEX 01 00:00:00
TRACK 02 AUDIO
TITLE "Saturday Night Fish Fry"
PERFORMER "The Ritz"
REM COMPOSER ""
INDEX 00 04:22:55
FILE "02 - Saturday Night Fish Fry.wav" WAVE
INDEX 01 00:00:00
TRACK 03 AUDIO
TITLE "Summer Burn"
PERFORMER "The Ritz"
REM COMPOSER ""
INDEX 00 03:59:67
FILE "03 - Summer Burn.wav" WAVE
INDEX 01 00:00:00
TRACK 04 AUDIO
TITLE "Walkin'"
PERFORMER "The Ritz"
REM COMPOSER ""
INDEX 00 04:16:10
FILE "04 - Walkin'.wav" WAVE
INDEX 01 00:00:00
TRACK 05 AUDIO
TITLE "It Never Entered My Mind"
PERFORMER "The Ritz"
REM COMPOSER ""
INDEX 00 03:46:15
FILE "05 - It Never Entered My Mind.wav" WAVE
INDEX 01 00:00:00
TRACK 06 AUDIO
TITLE "Invitation"
PERFORMER "The Ritz"
REM COMPOSER ""
INDEX 00 05:28:20
FILE "06 - Invitation.wav" WAVE
INDEX 01 00:00:00
TRACK 07 AUDIO
TITLE "Scrapple From The Apple"
PERFORMER "The Ritz"
REM COMPOSER ""
INDEX 00 04:30:38
FILE "07 - Scrapple From The Apple.wav" WAVE
INDEX 01 00:00:00
TRACK 08 AUDIO
TITLE "A Child Is Born"
PERFORMER "The Ritz"
REM COMPOSER ""
INDEX 00 05:59:67
FILE "08 - A Child Is Born.wav" WAVE
INDEX 01 00:00:00
TRACK 09 AUDIO
TITLE "Old Folks"
PERFORMER "The Ritz"
REM COMPOSER ""
INDEX 00 01:54:18
FILE "09 - Old Folks.wav" WAVE
INDEX 01 00:00:00
TRACK 10 AUDIO
TITLE "The Golden Rule"
PERFORMER "The Ritz"
REM COMPOSER ""
INDEX 00 05:11:20
FILE "10 - The Golden Rule.wav" WAVE
INDEX 01 00:00:00
TRACK 11 AUDIO
TITLE "Ooh Yah"
PERFORMER "The Ritz"
REM COMPOSER ""
INDEX 00 04:03:48
FILE "11 - Ooh Yah.wav" WAVE
INDEX 01 00:00:00
TRACK 12 AUDIO
TITLE "Music In The Air"
PERFORMER "The Ritz"
REM COMPOSER ""
INDEX 00 06:41:05
FILE "12 - Music In The Air.wav" WAVE
INDEX 01 00:00:00
TRACK 13 AUDIO
TITLE "The Best Is Yet To Come/It Ain't Necessarily So"
PERFORMER "The Ritz"
REM COMPOSER ""
INDEX 00 03:42:17
FILE "13 - The Best Is Yet To Come,It Ain't Necessarily So.wav" WAVE
INDEX 01 00:00:00
 
Лог проверки качества
 
Лог CUETools
[CUETools log; Date: 5/6/2018 8:16:47 AM; Version: 2.1.5]
[CTDB TOCID: wUs8409TDVlkz5jKguTeJ8DQsYs-] found.
Track | CTDB Status
1 | (55/56) Accurately ripped
2 | (54/56) Accurately ripped
3 | (55/56) Accurately ripped
4 | (55/56) Accurately ripped
5 | (55/56) Accurately ripped
6 | (55/56) Accurately ripped
7 | (55/56) Accurately ripped
8 | (55/56) Accurately ripped
9 | (55/56) Accurately ripped
10 | (55/56) Accurately ripped
11 | (54/56) Accurately ripped
12 | (54/56) Accurately ripped
13 | (52/56) Accurately ripped
[AccurateRip ID: 001bdcff-0117e894-c90d9b0d] found.
Track [ CRC | V2 ] Status
01 [8e6bc039|fa1e9fa5] (28+37/65) Accurately ripped
02 [54a3e120|e9f12ac9] (30+36/66) Accurately ripped
03 [fdf5ab3d|09ccb488] (29+37/66) Accurately ripped
04 [8bfa1d8f|c1dd172d] (29+37/66) Accurately ripped
05 [f38a166b|b748f1e3] (29+37/66) Accurately ripped
06 [e6b370ab|9b4b0fcd] (29+37/66) Accurately ripped
07 [871b864c|2dc7bb60] (29+37/66) Accurately ripped
08 [722ad185|a916f18e] (29+37/66) Accurately ripped
09 [cb26bc2f|dca93eb9] (29+37/66) Accurately ripped
10 [cf659b77|ec4e4ec6] (29+37/66) Accurately ripped
11 [38938896|a20b3189] (28+37/65) Accurately ripped
12 [bf17e2cc|e9e55341] (29+37/66) Accurately ripped
13 [6001a34b|4b1a946d] (29+36/65) Accurately ripped
Track Peak [ CRC32 ] [W/O NULL] [ LOG ]
-- 86.5 [09AD6CBD] [CEBAB178]
01 78.4 [152732DF] [6EE9903D] CRC32
02 83.2 [C6B44400] [FE4B4190] CRC32
03 69.2 [731702D6] [CA585EEB] CRC32
04 78.1 [32ECF86C] [07A75557] CRC32
05 43.8 [4395BC57] [79257428] CRC32
06 86.5 [01955694] [A8A82889] CRC32
07 80.4 [A8897B6B] [3A481EB8] CRC32
08 33.3 [CAA70B86] [D0461D18] CRC32
09 79.7 [045896C5] [C5709E95] CRC32
10 80.4 [471CE4FF] [A6005DA4] CRC32
11 78.7 [59C8D0B2] [CE093B79] CRC32
12 78.0 [94EB530D] [B2ECA44F] CRC32
13 79.9 [EB626E6C] [0012BBCB] CRC32
 
Замер динамического диапазона
foobar2000 1.3.10 / Замер динамического диапазона (DR) 1.1.1
Дата отчёта: 2018-05-06 16:27:31
--------------------------------------------------------------------------------
Анализ: The Ritz / The Ritz
--------------------------------------------------------------------------------
DR Пики RMS Продолжительность трека
--------------------------------------------------------------------------------
DR17 -2.11 дБ -23.79 дБ 4:25 01-All The Things You Are
DR16 -1.59 дБ -21.39 дБ 4:02 02-Saturday Night Fish Fry
DR17 -3.20 дБ -23.79 дБ 4:19 03-Summer Burn
DR16 -2.15 дБ -21.28 дБ 3:49 04-Walkin'
DR12 -7.16 дБ -24.80 дБ 5:31 05-It Never Entered My Mind
DR17 -1.25 дБ -21.38 дБ 4:34 06-Invitation
DR18 -1.89 дБ -24.20 дБ 6:03 07-Scrapple From The Apple
DR12 -9.54 дБ -29.45 дБ 1:59 08-A Child Is Born
DR19 -1.97 дБ -25.35 дБ 5:14 09-Old Folks
DR14 -1.89 дБ -19.06 дБ 4:07 10-The Golden Rule
DR17 -2.08 дБ -23.08 дБ 6:44 11-Ooh Yah
DR17 -2.15 дБ -21.55 дБ 3:45 12-Music In The Air
DR17 -1.94 дБ -22.55 дБ 3:32 13-The Best Is Yet To Come/It Ain't Necessarily So
--------------------------------------------------------------------------------
Количество треков: 13
Реальные значения DR: DR16
Частота: 44100 Гц
Каналов: 2
Разрядность: 16
Битрейт: 677 кбит/с
Кодек: FLAC
================================================================================

 
Back
 
Диск
 
Матрица

Данные на матрице выполнены в виде отдельных точек, различаемых под лупой, но на скане не видны
 
Об альбоме (сборнике):
Well-known locally, nationally and internationally for their unique vocal-jazz sound, THE RITZ is a Boston-based vocal jazz group featuring four singers and a three piece rhythm section. Founded in 1982 by current members Daryl Bosteels and Sharon Harris (as "PUTTIN' ON THE RITZ"), THE RITZ has established itself as one of the nation's premier vocal-jazz ensembles. Having recently expanded from a five piece to a seven piece ensemble, THE RITZ is well known for its versatility of style-featuring tunes from the medieval "madrigal" style, through the American Jazz periods of the '20's, 30's and 40's, to the contemporary "jazz fusion" sounds of today. Through its brief history, THE RITZ has been the opening act for such jazz and pop greats as GERRY MULLIGAN and THE POINTER SISTERS
THE RITZ have been guest and featured performers at the PORTSMOUTH JAZZ FESTIVAL (Portsmouth, New Hampshire), the HELSINKI JAZZ FESTIVAL (Finland), and most recently at the MONTREAL JAZZ FESTIVAL (Canada) in July of 1987. Tours have taken THE RITZ to Singapore and Casablanca, Morocco, as well as many cities in the United States, including Los Angeles, Washington DC, and Pittsburgh, PA. THE RITZ will be traveling to the State of Washington and British Columbia, Canada for an extensive tour in the Winter of 1988. This digital direct to two track recording, made at Clinton Studios in New York City on July 9-10, 1987, marks the debut of the Ritz on the Denon label. The goal of the producers and the group was to add a contemporary perspective to a vocal tradition that spans many decades
Al Hirshfeld, the noted caracturist, attended the sessions and made copious notes and sketches in preparation for the cover graphics. Carrying on another tradition, his daughter's name app ears at least three times on the cover.
 
Состав
Vocals – Daryl Bosteels, Rebecca Hardiman, Robert Stoloff, Sharon Harris
Bass – Martin Ballou
Drums – Les Harris, Jr.
Executive-Producer – Tatsunori Konno
Guest, Keyboards – Ray Hardiman
Guest, Percussion – Kenyatte Abdur-Rahman
Guest, Saxophone – Frank Wess
Piano – Jeff Auger
Producer – Jeffrey Weber

Приватный:
Нет (DHT включён)
Размер:
311.95 Мб (327,100,068 байт) » файлов: 28
Участники:
0 раздают, 0 качают (0 участников всего)
Внешние участники:
--- [ Обновить ]
07:16
3
Нет комментариев. Ваш будет первым!