Поиск

(Vocal Jazz, Swing, Dixieland) [WEB] The Dixielab - Hear Me Talking to You - 2018, FLAC (tracks), lossless

(Vocal Jazz, Swing, Dixieland) [WEB] The Dixielab - Hear Me Talking to You - 2018, FLAC (tracks), lossless
Треклист:
THE DIXIELAB / HEAR ME TALKING TO YOU
Жанр: Vocal Jazz, Swing, Dixieland
Год издания: 2018
Издатель (лейбл): Blue Asteroid Records
Страна исполнителя: Spain
Аудиокодек: FLAC (*.flac)
Тип рипа: tracks
Битрейт аудио: lossless
Продолжительность: 34:41
Источник (релизер): WEB
Наличие сканов: нет
Треклист:
01. Sugar
02. Hear Me Talking to You
03. Them There Eyes
04. Keepin' out of Mischief Now
05. I Can't Dance, I've Got Ants in My Pants
06. Joshua Fit the Battle of Jericho
07. I Can’t Believe That You’re in Love with Me
08. What a Little Moonlight Can Do
09. Swing, Brother, Swing!
 
Лог проверки качества
AUDIOCHECKER v2.0 beta (build 457) - by Dester - opdester@freemail.hu
~~~~~~~~~~~~~~~~~~~~~~~~~~~~~~~~~~
-=== DO NOT EDIT THIS FILE! ===-
Path: ...\The Dixielab - Hear Me Talking to You (2018) [FLAC]
1 -=- 01 - Sugar.flac -=- CDDA (100%)
2 -=- 02 - Hear Me Talking to You.flac -=- CDDA (99%)
3 -=- 03 - Them There Eyes.flac -=- CDDA (99%)
4 -=- 04 - Keepin' out of Mischief Now.flac -=- CDDA (100%)
5 -=- 05 - I Can't Dance I've Got Ants in My Pants.flac -=- CDDA (99%)
6 -=- 06 - Joshua Fit the Battle of Jericho.flac -=- CDDA (100%)
7 -=- 07 - I Can't Believe That You're in Love with Me.flac -=- CDDA (100%)
8 -=- 08 - What a Little Moonlight Can Do.flac -=- CDDA (100%)
9 -=- 09 - Swing Brother Swing!.flac -=- CDDA (100%)
Summary 99,67% CDDA
188874068
••••••••••
foobar2000 1.3.12 / Замер динамического диапазона (DR) 1.1.1
Дата отчёта: 2018-05-16 18:16:07
--------------------------------------------------------------------------------
Анализ: The Dixielab / Hear Me Talking to You
--------------------------------------------------------------------------------
DR Пики RMS Продолжительность трека
--------------------------------------------------------------------------------
DR8 -0.20 дБ -9.36 дБ 3:34 01-Sugar
DR9 -0.20 дБ -9.94 дБ 4:20 02-Hear Me Talking to You
DR8 -0.20 дБ -8.83 дБ 3:32 03-Them There Eyes
DR9 -0.20 дБ -10.71 дБ 5:32 04-Keepin' out of Mischief Now
DR8 -0.20 дБ -9.53 дБ 3:41 05-I Can't Dance I've Got Ants in My Pants
DR7 -0.20 дБ -8.80 дБ 3:43 06-Joshua Fit the Battle of Jericho
DR8 -0.20 дБ -9.02 дБ 3:41 07-I Can’t Believe That You’re in Love with Me
DR8 -0.20 дБ -9.59 дБ 3:36 08-What a Little Moonlight Can Do
DR9 -0.20 дБ -10.39 дБ 3:02 09-Swing Brother Swing!
--------------------------------------------------------------------------------
Количество треков: 9
Реальные значения DR: DR8
Частота: 44100 Гц
Каналов: 2
Разрядность: 16
Битрейт: 913 кбит/с
Кодек: FLAC
================================================================================
 
Состав
Paula Padilla
vocals, ukulele
Matías Comino
guitars, banjo
Nacho Botonero
cornet, clarinet, sax
Daniel González
bass
Pablo Cabra
drums, washboard
Скачивание доступно после регистрации!!
Приватный:
Нет (DHT включён)
Размер:
227.08 Мб (238,107,552 байт) » файлов: 11
Участники:
0 раздают, 0 качают (0 участников всего)
Внешние участники:
--- [ Обновить ]
07:19
13
Нет комментариев. Ваш будет первым!