Поиск

(Vocal Jazz) [CD] Sarah Vaughan - The Real... Sarah Vaughan (3CD) - 2015, FLAC (tracks+.cue), lossless

(Vocal Jazz) [CD] Sarah Vaughan - The Real... Sarah Vaughan (3CD) - 2015, FLAC (tracks+.cue), lossless
Треклист:
Sarah Vaughan - The Real... Sarah Vaughan (3CD)

Жанр: Vocal Jazz | Носитель: CD
Год издания: 2015 | Издатель (лейбл): Sony Music | Номер по каталогу: 88875099012
Аудиокодек: FLAC (*.flac) | Тип рипа: tracks+.cue | Битрейт аудио: lossless
Продолжительность: 02:37:11 | Источник (релизер): Olivierito
Наличие сканов в содержимом раздачи: да 
 
 
Disc 1 (50:10)
Треклист:
01. Ain't Misbehavin' (3:01)
02. The Nearness of You (3:20)
03. I'm Crazy to Love You (3:00)
04. Come Rain or Come Shine (3:24)
05. Perdido (2:31)
06. My Tormented Heart (3:00)
07. Just Friends (3:01)
08. Street of Dreams (3:04)
09. It's All In Your Mind (3:22)
10. Pinky (2:44)
11. These Things I Offer You (For A Lifetime) (3:00)
12. Linger A While (2:02)
13. Goodnight My Love (3:29)
14. East Of The Sun (West Of The Moon) (3:08)
15. After Hours (2:52)
16. My Reverie (2:35)
17. Vanity (2:36)
 
 
Лог создания рипа
Exact Audio Copy V1.3 from 2. September 2016
EAC extraction logfile from 6. March 2017, 22:12
Sarah Vaughan / The Real... Sarah Vaughan - Disc 1
Used drive : TSSTcorpCDDVDW SE-208AB Adapter: 2 ID: 0
Read mode : Secure
Utilize accurate stream : Yes
Defeat audio cache : Yes
Make use of C2 pointers : No
Read offset correction : 6
Overread into Lead-In and Lead-Out : No
Fill up missing offset samples with silence : Yes
Delete leading and trailing silent blocks : No
Null samples used in CRC calculations : Yes
Used interface : Installed external ASPI interface
Gap handling : Appended to previous track
Used output format : User Defined Encoder
Selected bitrate : 768 kBit/s
Quality : High
Add ID3 tag : No
Command line compressor : C:\Program Files (x86)\Exact Audio Copy\Flac\flac.exe
Additional command line options : -8 -V -T "ARTIST=%artist%" -T "TITLE=%title%" -T "ALBUM=%albumtitle%" -T "DATE=%year%" -T "TRACKNUMBER=%tracknr%" -T "GENRE=%genre%" -T "COMMENT=%comment%" -T "BAND=%albuminterpret%" -T "ALBUMARTIST=%albuminterpret%" -T "COMPOSER=%composer%" %haslyrics%--tag-from-file=LYRICS="%lyricsfile%"%haslyrics% -T "DISCNUMBER=%cdnumber%" -T "TOTALDISCS=%totalcds%" -T "TOTALTRACKS=%numtracks%" %hascover%--picture="%coverfile%"%hascover% %source% -o %dest%
TOC of the extracted CD
Track | Start | Length | Start sector | End sector
---------------------------------------------------------
1 | 0:00.00 | 3:00.55 | 0 | 13554
2 | 3:00.55 | 3:20.05 | 13555 | 28559
3 | 6:20.60 | 3:00.17 | 28560 | 42076
4 | 9:21.02 | 3:24.36 | 42077 | 57412
5 | 12:45.38 | 2:31.15 | 57413 | 68752
6 | 15:16.53 | 3:00.15 | 68753 | 82267
7 | 18:16.68 | 3:00.67 | 82268 | 95834
8 | 21:17.60 | 3:04.04 | 95835 | 109638
9 | 24:21.64 | 3:22.24 | 109639 | 124812
10 | 27:44.13 | 2:43.51 | 124813 | 137088
11 | 30:27.64 | 3:00.08 | 137089 | 150596
12 | 33:27.72 | 2:02.17 | 150597 | 159763
13 | 35:30.14 | 3:29.11 | 159764 | 175449
14 | 38:59.25 | 3:07.62 | 175450 | 189536
15 | 42:07.12 | 2:51.49 | 189537 | 202410
16 | 44:58.61 | 2:35.08 | 202411 | 214043
17 | 47:33.69 | 2:36.22 | 214044 | 225765
Track 1
Filename C:\Program Files (x86)\Exact Audio Copy\Flac\01. Ain't Misbehavin'.wav
Pre-gap length 0:00:02.00
Peak level 98.7 %
Extraction speed 1.0 X
Track quality 100.0 %
Test CRC EAD003CE
Copy CRC EAD003CE
Accurately ripped (confidence 1) [B5A3CD33] (AR v2)
Copy OK
Track 2
Filename C:\Program Files (x86)\Exact Audio Copy\Flac\02. The Nearness of You.wav
Pre-gap length 0:00:01.00
Peak level 98.7 %
Extraction speed 1.1 X
Track quality 100.0 %
Test CRC 1787DD70
Copy CRC 1787DD70
Accurately ripped (confidence 1) [5159DFF8] (AR v2)
Copy OK
Track 3
Filename C:\Program Files (x86)\Exact Audio Copy\Flac\03. I'm Crazy to Love You.wav
Pre-gap length 0:00:01.01
Peak level 98.7 %
Extraction speed 1.0 X
Track quality 99.9 %
Test CRC 3253ED04
Copy CRC 3253ED04
Accurately ripped (confidence 1) [840089D4] (AR v2)
Copy OK
Track 4
Filename C:\Program Files (x86)\Exact Audio Copy\Flac\04. Come Rain or Come Shine.wav
Pre-gap length 0:00:01.25
Peak level 98.7 %
Extraction speed 1.1 X
Track quality 99.9 %
Test CRC B69173E4
Copy CRC B69173E4
Accurately ripped (confidence 1) [2CBB9A65] (AR v2)
Copy OK
Track 5
Filename C:\Program Files (x86)\Exact Audio Copy\Flac\05. Perdido.wav
Pre-gap length 0:00:01.27
Peak level 98.7 %
Extraction speed 1.3 X
Track quality 100.0 %
Test CRC 859D047E
Copy CRC 859D047E
Accurately ripped (confidence 1) [BC8A9F51] (AR v2)
Copy OK
Track 6
Filename C:\Program Files (x86)\Exact Audio Copy\Flac\06. My Tormented Heart.wav
Pre-gap length 0:00:01.26
Peak level 80.1 %
Extraction speed 1.4 X
Track quality 100.0 %
Test CRC 9E9281CC
Copy CRC 9E9281CC
Accurately ripped (confidence 1) [D64E1010] (AR v2)
Copy OK
Track 7
Filename C:\Program Files (x86)\Exact Audio Copy\Flac\07. Just Friends.wav
Pre-gap length 0:00:01.31
Peak level 98.7 %
Extraction speed 1.2 X
Track quality 99.9 %
Test CRC 3A38DCB6
Copy CRC 3A38DCB6
Accurately ripped (confidence 1) [2872BE33] (AR v2)
Copy OK
Track 8
Filename C:\Program Files (x86)\Exact Audio Copy\Flac\08. Street of Dreams.wav
Pre-gap length 0:00:01.10
Peak level 81.4 %
Extraction speed 1.5 X
Track quality 100.0 %
Test CRC 12D61814
Copy CRC 12D61814
Accurately ripped (confidence 1) [41233896] (AR v2)
Copy OK
Track 9
Filename C:\Program Files (x86)\Exact Audio Copy\Flac\09. It's All In Your Mind.wav
Pre-gap length 0:00:00.37
Peak level 98.7 %
Extraction speed 1.6 X
Track quality 100.0 %
Test CRC 9817124B
Copy CRC 9817124B
Accurately ripped (confidence 1) [E1D7751E] (AR v2)
Copy OK
Track 10
Filename C:\Program Files (x86)\Exact Audio Copy\Flac\10. Pinky.wav
Pre-gap length 0:00:01.24
Peak level 98.7 %
Extraction speed 1.3 X
Track quality 99.9 %
Test CRC B9035C91
Copy CRC B9035C91
Accurately ripped (confidence 1) [FD0C20C0] (AR v2)
Copy OK
Track 11
Filename C:\Program Files (x86)\Exact Audio Copy\Flac\11. These Things I Offer You (For A Lifetime).wav
Pre-gap length 0:00:01.04
Peak level 98.7 %
Extraction speed 1.6 X
Track quality 100.0 %
Test CRC 2783C145
Copy CRC 2783C145
Accurately ripped (confidence 1) [2856EB46] (AR v2)
Copy OK
Track 12
Filename C:\Program Files (x86)\Exact Audio Copy\Flac\12. Linger A While.wav
Pre-gap length 0:00:00.68
Peak level 92.3 %
Extraction speed 1.5 X
Track quality 100.0 %
Test CRC F5B00771
Copy CRC F5B00771
Accurately ripped (confidence 1) [A7F0AD84] (AR v2)
Copy OK
Track 13
Filename C:\Program Files (x86)\Exact Audio Copy\Flac\13. Goodnight My Love.wav
Pre-gap length 0:00:01.00
Peak level 99.5 %
Extraction speed 1.4 X
Track quality 99.9 %
Test CRC FD83BEF9
Copy CRC FD83BEF9
Accurately ripped (confidence 1) [1048C755] (AR v2)
Copy OK
Track 14
Filename C:\Program Files (x86)\Exact Audio Copy\Flac\14. East Of The Sun (West Of The Moon).wav
Pre-gap length 0:00:02.11
Peak level 98.0 %
Extraction speed 1.8 X
Track quality 100.0 %
Test CRC E5A56A66
Copy CRC E5A56A66
Accurately ripped (confidence 1) [25F54060] (AR v2)
Copy OK
Track 15
Filename C:\Program Files (x86)\Exact Audio Copy\Flac\15. After Hours.wav
Pre-gap length 0:00:01.49
Peak level 98.7 %
Extraction speed 1.6 X
Track quality 99.9 %
Test CRC 019B9D1F
Copy CRC 019B9D1F
Accurately ripped (confidence 1) [6DCEDC25] (AR v2)
Copy OK
Track 16
Filename C:\Program Files (x86)\Exact Audio Copy\Flac\16. My Reverie.wav
Pre-gap length 0:00:01.38
Peak level 98.7 %
Extraction speed 1.9 X
Track quality 100.0 %
Test CRC 8F90348A
Copy CRC 8F90348A
Accurately ripped (confidence 1) [23F4B70E] (AR v2)
Copy OK
Track 17
Filename C:\Program Files (x86)\Exact Audio Copy\Flac\17. Vanity.wav
Pre-gap length 0:00:01.46
Peak level 98.7 %
Extraction speed 1.9 X
Track quality 100.0 %
Test CRC 5E7CB739
Copy CRC 5E7CB739
Accurately ripped (confidence 1) [71D5F177] (AR v2)
Copy OK
All tracks accurately ripped
No errors occurred
End of status report
---- CUETools DB Plugin V2.1.6
[CTDB TOCID: D1BWvB9hsp7KIy.rPQSG5VpVZdo-] found
Submit result: D1BWvB9hsp7KIy.rPQSG5VpVZdo- has been confirmed
Track | CTDB Status
1 | (5/5) Accurately ripped
2 | (5/5) Accurately ripped
3 | (5/5) Accurately ripped
4 | (5/5) Accurately ripped
5 | (5/5) Accurately ripped
6 | (5/5) Accurately ripped
7 | (5/5) Accurately ripped
8 | (5/5) Accurately ripped
9 | (5/5) Accurately ripped
10 | (5/5) Accurately ripped
11 | (5/5) Accurately ripped
12 | (5/5) Accurately ripped
13 | (5/5) Accurately ripped
14 | (5/5) Accurately ripped
15 | (5/5) Accurately ripped
16 | (5/5) Accurately ripped
17 | (5/5) Accurately ripped
==== Log checksum 5E3C84034F1176CFACE9112379C5C52F105054220D6614848D69AEC7A7677686 ====
 
Содержание индексной карты (.CUE)
REM GENRE Jazz
REM DATE 2015
REM DISCID F40BC211
REM COMMENT "ExactAudioCopy v1.3"
PERFORMER "Sarah Vaughan "
TITLE "The Real... Sarah Vaughan - Disc 1"
REM COMPOSER ""
FILE "01. Ain't Misbehavin'.wav" WAVE
TRACK 01 AUDIO
TITLE "Ain't Misbehavin'"
PERFORMER "Sarah Vaughan "
REM COMPOSER ""
INDEX 01 00:00:00
TRACK 02 AUDIO
TITLE "The Nearness of You"
PERFORMER "Sarah Vaughan "
REM COMPOSER ""
INDEX 00 02:59:55
FILE "02. The Nearness of You.wav" WAVE
INDEX 01 00:00:00
TRACK 03 AUDIO
TITLE "I'm Crazy to Love You"
PERFORMER "Sarah Vaughan "
REM COMPOSER ""
INDEX 00 03:19:04
FILE "03. I'm Crazy to Love You.wav" WAVE
INDEX 01 00:00:00
TRACK 04 AUDIO
TITLE "Come Rain or Come Shine"
PERFORMER "Sarah Vaughan "
REM COMPOSER ""
INDEX 00 02:58:67
FILE "04. Come Rain or Come Shine.wav" WAVE
INDEX 01 00:00:00
TRACK 05 AUDIO
TITLE "Perdido"
PERFORMER "Sarah Vaughan "
REM COMPOSER ""
INDEX 00 03:23:09
FILE "05. Perdido.wav" WAVE
INDEX 01 00:00:00
TRACK 06 AUDIO
TITLE "My Tormented Heart"
PERFORMER "Sarah Vaughan "
REM COMPOSER ""
INDEX 00 02:29:64
FILE "06. My Tormented Heart.wav" WAVE
INDEX 01 00:00:00
TRACK 07 AUDIO
TITLE "Just Friends"
PERFORMER "Sarah Vaughan "
REM COMPOSER ""
INDEX 00 02:58:59
FILE "07. Just Friends.wav" WAVE
INDEX 01 00:00:00
TRACK 08 AUDIO
TITLE "Street of Dreams"
PERFORMER "Sarah Vaughan "
REM COMPOSER ""
INDEX 00 02:59:57
FILE "08. Street of Dreams.wav" WAVE
INDEX 01 00:00:00
TRACK 09 AUDIO
TITLE "It's All In Your Mind"
PERFORMER "Sarah Vaughan "
REM COMPOSER ""
INDEX 00 03:03:42
FILE "09. It's All In Your Mind.wav" WAVE
INDEX 01 00:00:00
TRACK 10 AUDIO
TITLE "Pinky"
PERFORMER "Sarah Vaughan "
REM COMPOSER ""
INDEX 00 03:21:00
FILE "10. Pinky.wav" WAVE
INDEX 01 00:00:00
TRACK 11 AUDIO
TITLE "These Things I Offer You (For A Lifetime)"
PERFORMER "Sarah Vaughan "
REM COMPOSER ""
INDEX 00 02:42:47
FILE "11. These Things I Offer You (For A Lifetime).wav" WAVE
INDEX 01 00:00:00
TRACK 12 AUDIO
TITLE "Linger A While"
PERFORMER "Sarah Vaughan "
REM COMPOSER ""
INDEX 00 02:59:15
FILE "12. Linger A While.wav" WAVE
INDEX 01 00:00:00
TRACK 13 AUDIO
TITLE "Goodnight My Love"
PERFORMER "Sarah Vaughan "
REM COMPOSER ""
INDEX 00 02:01:17
FILE "13. Goodnight My Love.wav" WAVE
INDEX 01 00:00:00
TRACK 14 AUDIO
TITLE "East Of The Sun (West Of The Moon)"
PERFORMER "Sarah Vaughan "
REM COMPOSER ""
INDEX 00 03:27:00
FILE "14. East Of The Sun (West Of The Moon).wav" WAVE
INDEX 01 00:00:00
TRACK 15 AUDIO
TITLE "After Hours"
PERFORMER "Sarah Vaughan "
REM COMPOSER ""
INDEX 00 03:06:13
FILE "15. After Hours.wav" WAVE
INDEX 01 00:00:00
TRACK 16 AUDIO
TITLE "My Reverie"
PERFORMER "Sarah Vaughan "
REM COMPOSER ""
INDEX 00 02:50:11
FILE "16. My Reverie.wav" WAVE
INDEX 01 00:00:00
TRACK 17 AUDIO
TITLE "Vanity"
PERFORMER "Sarah Vaughan "
REM COMPOSER ""
INDEX 00 02:33:37
FILE "17. Vanity.wav" WAVE
INDEX 01 00:00:00
 
Disc 2 (53:21)
Треклист:
01. Nice Work If You Can Get It (2:37)
02. Summertime (3:17)
03. It Might as Well Be Spring (3:12)
04. Sinner Or Saint (2:59)
05. While You Are Gone (3:09)
06. I'll Know (3:18)
07. Deep Purple (3:09)
08. Spring Will Be a Little Late This Year (2:42)
09. I Can't Get Out Of This Mood (2:50)
10. A Blues Serenade (2:38)
11. I Cried for You (2:26)
12. That Lucky Old Sun (Just Rolls Around Heaven All Day) (3:23)
13. Black Coffee (3:17)
14. Mean to Me (2:54)
15. Thinking of You (3:04)
16. You're Mine, You (3:12)
17. Ooh What-Cha Doin' To Me (1:55)
18. You Taught Me to Love Again (3:19)
 
 
Лог создания рипа
Exact Audio Copy V1.3 from 2. September 2016
EAC extraction logfile from 7. March 2017, 8:00
Sarah Vaughan / The Real... Sarah Vaughan - Disc 2
Used drive : TSSTcorpCDDVDW SE-208AB Adapter: 2 ID: 0
Read mode : Secure
Utilize accurate stream : Yes
Defeat audio cache : Yes
Make use of C2 pointers : No
Read offset correction : 6
Overread into Lead-In and Lead-Out : No
Fill up missing offset samples with silence : Yes
Delete leading and trailing silent blocks : No
Null samples used in CRC calculations : Yes
Used interface : Installed external ASPI interface
Gap handling : Appended to previous track
Used output format : User Defined Encoder
Selected bitrate : 768 kBit/s
Quality : High
Add ID3 tag : No
Command line compressor : C:\Program Files (x86)\Exact Audio Copy\Flac\flac.exe
Additional command line options : -8 -V -T "ARTIST=%artist%" -T "TITLE=%title%" -T "ALBUM=%albumtitle%" -T "DATE=%year%" -T "TRACKNUMBER=%tracknr%" -T "GENRE=%genre%" -T "COMMENT=%comment%" -T "BAND=%albuminterpret%" -T "ALBUMARTIST=%albuminterpret%" -T "COMPOSER=%composer%" %haslyrics%--tag-from-file=LYRICS="%lyricsfile%"%haslyrics% -T "DISCNUMBER=%cdnumber%" -T "TOTALDISCS=%totalcds%" -T "TOTALTRACKS=%numtracks%" %hascover%--picture="%coverfile%"%hascover% %source% -o %dest%
TOC of the extracted CD
Track | Start | Length | Start sector | End sector
---------------------------------------------------------
1 | 0:00.00 | 2:36.47 | 0 | 11746
2 | 2:36.47 | 3:17.02 | 11747 | 26523
3 | 5:53.49 | 3:12.15 | 26524 | 40938
4 | 9:05.64 | 2:58.61 | 40939 | 54349
5 | 12:04.50 | 3:09.20 | 54350 | 68544
6 | 15:13.70 | 3:18.00 | 68545 | 83394
7 | 18:31.70 | 3:09.20 | 83395 | 97589
8 | 21:41.15 | 2:42.36 | 97590 | 109775
9 | 24:23.51 | 2:49.59 | 109776 | 122509
10 | 27:13.35 | 2:37.52 | 122510 | 134336
11 | 29:51.12 | 2:25.68 | 134337 | 145279
12 | 32:17.05 | 3:22.53 | 145280 | 160482
13 | 35:39.58 | 3:17.06 | 160483 | 175263
14 | 38:56.64 | 2:53.68 | 175264 | 188306
15 | 41:50.57 | 3:04.27 | 188307 | 202133
16 | 44:55.09 | 3:11.39 | 202134 | 216497
17 | 48:06.48 | 1:55.34 | 216498 | 225156
18 | 50:02.07 | 3:18.40 | 225157 | 240046
Track 1
Filename C:\Program Files (x86)\Exact Audio Copy\Flac\01. Nice Work If You Can Get It.wav
Pre-gap length 0:00:02.00
Peak level 98.7 %
Extraction speed 0.9 X
Track quality 100.0 %
Test CRC 8DC425E3
Copy CRC 8DC425E3
Accurately ripped (confidence 2) [8DDA3402] (AR v2)
Copy OK
Track 2
Filename C:\Program Files (x86)\Exact Audio Copy\Flac\02. Summertime.wav
Pre-gap length 0:00:01.03
Peak level 95.4 %
Extraction speed 1.1 X
Track quality 100.0 %
Test CRC BC530BD3
Copy CRC BC530BD3
Accurately ripped (confidence 2) [5C6B2F10] (AR v2)
Copy OK
Track 3
Filename C:\Program Files (x86)\Exact Audio Copy\Flac\03. It Might as Well Be Spring.wav
Pre-gap length 0:00:01.55
Peak level 98.7 %
Extraction speed 1.0 X
Track quality 99.9 %
Test CRC 325B86DA
Copy CRC 325B86DA
Accurately ripped (confidence 2) [A20D0A64] (AR v2)
Copy OK
Track 4
Filename C:\Program Files (x86)\Exact Audio Copy\Flac\04. Sinner Or Saint.wav
Pre-gap length 0:00:01.23
Peak level 67.6 %
Extraction speed 1.2 X
Track quality 100.0 %
Test CRC 86112E92
Copy CRC 86112E92
Accurately ripped (confidence 2) [CAFE5D07] (AR v2)
Copy OK
Track 5
Filename C:\Program Files (x86)\Exact Audio Copy\Flac\05. While You Are Gone.wav
Pre-gap length 0:00:01.04
Peak level 98.7 %
Extraction speed 1.3 X
Track quality 100.0 %
Test CRC 87F60F4D
Copy CRC 87F60F4D
Accurately ripped (confidence 2) [09E6A1E6] (AR v2)
Copy OK
Track 6
Filename C:\Program Files (x86)\Exact Audio Copy\Flac\06. I'll Know.wav
Pre-gap length 0:00:01.16
Peak level 98.7 %
Extraction speed 1.4 X
Track quality 100.0 %
Test CRC AA7116F7
Copy CRC AA7116F7
Accurately ripped (confidence 2) [75029F58] (AR v2)
Copy OK
Track 7
Filename C:\Program Files (x86)\Exact Audio Copy\Flac\07. Deep Purple.wav
Pre-gap length 0:00:00.70
Peak level 84.3 %
Extraction speed 1.4 X
Track quality 100.0 %
Test CRC 213AEC96
Copy CRC 213AEC96
Accurately ripped (confidence 2) [052AD878] (AR v2)
Copy OK
Track 8
Filename C:\Program Files (x86)\Exact Audio Copy\Flac\08. Spring Will Be a Little Late This Year.wav
Pre-gap length 0:00:01.16
Peak level 98.7 %
Extraction speed 1.5 X
Track quality 100.0 %
Test CRC F257D361
Copy CRC F257D361
Accurately ripped (confidence 2) [5CC9ABD3] (AR v2)
Copy OK
Track 9
Filename C:\Program Files (x86)\Exact Audio Copy\Flac\09. I Can't Get Out Of This Mood.wav
Pre-gap length 0:00:01.72
Peak level 98.7 %
Extraction speed 1.6 X
Track quality 100.0 %
Test CRC E8F5B100
Copy CRC E8F5B100
Accurately ripped (confidence 2) [B28FD658] (AR v2)
Copy OK
Track 10
Filename C:\Program Files (x86)\Exact Audio Copy\Flac\10. A Blues Serenade.wav
Pre-gap length 0:00:01.12
Peak level 98.7 %
Extraction speed 1.3 X
Track quality 99.9 %
Test CRC 9502F4F2
Copy CRC 9502F4F2
Accurately ripped (confidence 2) [FE6198F3] (AR v2)
Copy OK
Track 11
Filename C:\Program Files (x86)\Exact Audio Copy\Flac\11. I Cried for You.wav
Pre-gap length 0:00:01.27
Peak level 98.7 %
Extraction speed 1.6 X
Track quality 100.0 %
Test CRC 44500754
Copy CRC 44500754
Accurately ripped (confidence 2) [5C761C5A] (AR v2)
Copy OK
Track 12
Filename C:\Program Files (x86)\Exact Audio Copy\Flac\12. That Lucky Old Sun (Just Rolls Around Heaven All Day).wav
Pre-gap length 0:00:01.35
Peak level 80.8 %
Extraction speed 1.8 X
Track quality 100.0 %
Test CRC FA2CECED
Copy CRC FA2CECED
Accurately ripped (confidence 2) [08C92553] (AR v2)
Copy OK
Track 13
Filename C:\Program Files (x86)\Exact Audio Copy\Flac\13. Black Coffee.wav
Pre-gap length 0:00:01.17
Peak level 98.7 %
Extraction speed 1.8 X
Track quality 100.0 %
Test CRC DE40D631
Copy CRC DE40D631
Accurately ripped (confidence 2) [EF444A43] (AR v2)
Copy OK
Track 14
Filename C:\Program Files (x86)\Exact Audio Copy\Flac\14. Mean to Me.wav
Pre-gap length 0:00:00.60
Peak level 98.7 %
Extraction speed 1.8 X
Track quality 100.0 %
Test CRC C947236D
Copy CRC C947236D
Accurately ripped (confidence 2) [42D681A3] (AR v2)
Copy OK
Track 15
Filename C:\Program Files (x86)\Exact Audio Copy\Flac\15. Thinking of You.wav
Pre-gap length 0:00:01.19
Peak level 97.1 %
Extraction speed 1.9 X
Track quality 100.0 %
Test CRC 54F0683F
Copy CRC 54F0683F
Accurately ripped (confidence 2) [BEDE3EF5] (AR v2)
Copy OK
Track 16
Filename C:\Program Files (x86)\Exact Audio Copy\Flac\16. You're Mine, You.wav
Pre-gap length 0:00:01.70
Peak level 98.7 %
Extraction speed 2.0 X
Track quality 100.0 %
Test CRC E70903B2
Copy CRC E70903B2
Accurately ripped (confidence 2) [03BF83EF] (AR v2)
Copy OK
Track 17
Filename C:\Program Files (x86)\Exact Audio Copy\Flac\17. Ooh What-Cha Doin' To Me.wav
Pre-gap length 0:00:01.42
Peak level 98.7 %
Extraction speed 1.8 X
Track quality 100.0 %
Test CRC 358C57BD
Copy CRC 358C57BD
Accurately ripped (confidence 2) [E20A5616] (AR v2)
Copy OK
Track 18
Filename C:\Program Files (x86)\Exact Audio Copy\Flac\18. You Taught Me to Love Again.wav
Pre-gap length 0:00:01.10
Peak level 98.7 %
Extraction speed 1.8 X
Track quality 99.9 %
Test CRC 0C0A2ED4
Copy CRC 0C0A2ED4
Accurately ripped (confidence 2) [BE7C255D] (AR v2)
Copy OK
All tracks accurately ripped
No errors occurred
End of status report
---- CUETools DB Plugin V2.1.6
[CTDB TOCID: kOLdzrHCD.8k1ImcK6kStLZ8gAg-] found
Submit result: kOLdzrHCD.8k1ImcK6kStLZ8gAg- has been confirmed
Track | CTDB Status
1 | (4/4) Accurately ripped
2 | (4/4) Accurately ripped
3 | (4/4) Accurately ripped
4 | (4/4) Accurately ripped
5 | (4/4) Accurately ripped
6 | (4/4) Accurately ripped
7 | (4/4) Accurately ripped
8 | (4/4) Accurately ripped
9 | (4/4) Accurately ripped
10 | (4/4) Accurately ripped
11 | (4/4) Accurately ripped
12 | (4/4) Accurately ripped
13 | (4/4) Accurately ripped
14 | (4/4) Accurately ripped
15 | (4/4) Accurately ripped
16 | (4/4) Accurately ripped
17 | (4/4) Accurately ripped
18 | (4/4) Accurately ripped
==== Log checksum 9990497D4B6328C3EA91C42BF040B16A35141DD962C280EC6220CA21743ADBC7 ====
 
Содержание индексной карты (.CUE)
REM GENRE Jazz
REM DATE 2015
REM DISCID FC0C8012
REM COMMENT "ExactAudioCopy v1.3"
PERFORMER "Sarah Vaughan "
TITLE "The Real... Sarah Vaughan - Disc 2"
REM COMPOSER ""
FILE "01. Nice Work If You Can Get It.wav" WAVE
TRACK 01 AUDIO
TITLE "Nice Work If You Can Get It"
PERFORMER "Sarah Vaughan "
REM COMPOSER ""
INDEX 01 00:00:00
TRACK 02 AUDIO
TITLE "Summertime"
PERFORMER "Sarah Vaughan "
REM COMPOSER ""
INDEX 00 02:35:44
FILE "02. Summertime.wav" WAVE
INDEX 01 00:00:00
TRACK 03 AUDIO
TITLE "It Might as Well Be Spring"
PERFORMER "Sarah Vaughan "
REM COMPOSER ""
INDEX 00 03:15:22
FILE "03. It Might as Well Be Spring.wav" WAVE
INDEX 01 00:00:00
TRACK 04 AUDIO
TITLE "Sinner Or Saint"
PERFORMER "Sarah Vaughan "
REM COMPOSER ""
INDEX 00 03:10:67
FILE "04. Sinner Or Saint.wav" WAVE
INDEX 01 00:00:00
TRACK 05 AUDIO
TITLE "While You Are Gone"
PERFORMER "Sarah Vaughan "
REM COMPOSER ""
INDEX 00 02:57:57
FILE "05. While You Are Gone.wav" WAVE
INDEX 01 00:00:00
TRACK 06 AUDIO
TITLE "I'll Know"
PERFORMER "Sarah Vaughan "
REM COMPOSER ""
INDEX 00 03:08:04
FILE "06. I'll Know.wav" WAVE
INDEX 01 00:00:00
TRACK 07 AUDIO
TITLE "Deep Purple"
PERFORMER "Sarah Vaughan "
REM COMPOSER ""
INDEX 00 03:17:05
FILE "07. Deep Purple.wav" WAVE
INDEX 01 00:00:00
TRACK 08 AUDIO
TITLE "Spring Will Be a Little Late This Year"
PERFORMER "Sarah Vaughan "
REM COMPOSER ""
INDEX 00 03:08:04
FILE "08. Spring Will Be a Little Late This Year.wav" WAVE
INDEX 01 00:00:00
TRACK 09 AUDIO
TITLE "I Can't Get Out Of This Mood"
PERFORMER "Sarah Vaughan "
REM COMPOSER ""
INDEX 00 02:40:39
FILE "09. I Can't Get Out Of This Mood.wav" WAVE
INDEX 01 00:00:00
TRACK 10 AUDIO
TITLE "A Blues Serenade"
PERFORMER "Sarah Vaughan "
REM COMPOSER ""
INDEX 00 02:48:47
FILE "10. A Blues Serenade.wav" WAVE
INDEX 01 00:00:00
TRACK 11 AUDIO
TITLE "I Cried for You"
PERFORMER "Sarah Vaughan "
REM COMPOSER ""
INDEX 00 02:36:25
FILE "11. I Cried for You.wav" WAVE
INDEX 01 00:00:00
TRACK 12 AUDIO
TITLE "That Lucky Old Sun (Just Rolls Around Heaven All Day)"
PERFORMER "Sarah Vaughan "
REM COMPOSER ""
INDEX 00 02:24:33
FILE "12. That Lucky Old Sun (Just Rolls Around Heaven All Day).wav" WAVE
INDEX 01 00:00:00
TRACK 13 AUDIO
TITLE "Black Coffee"
PERFORMER "Sarah Vaughan "
REM COMPOSER ""
INDEX 00 03:21:36
FILE "13. Black Coffee.wav" WAVE
INDEX 01 00:00:00
TRACK 14 AUDIO
TITLE "Mean to Me"
PERFORMER "Sarah Vaughan "
REM COMPOSER ""
INDEX 00 03:16:21
FILE "14. Mean to Me.wav" WAVE
INDEX 01 00:00:00
TRACK 15 AUDIO
TITLE "Thinking of You"
PERFORMER "Sarah Vaughan "
REM COMPOSER ""
INDEX 00 02:52:49
FILE "15. Thinking of You.wav" WAVE
INDEX 01 00:00:00
TRACK 16 AUDIO
TITLE "You're Mine, You"
PERFORMER "Sarah Vaughan "
REM COMPOSER ""
INDEX 00 03:02:32
FILE "16. You're Mine, You.wav" WAVE
INDEX 01 00:00:00
TRACK 17 AUDIO
TITLE "Ooh What-Cha Doin' To Me"
PERFORMER "Sarah Vaughan "
REM COMPOSER ""
INDEX 00 03:09:72
FILE "17. Ooh What-Cha Doin' To Me.wav" WAVE
INDEX 01 00:00:00
TRACK 18 AUDIO
TITLE "You Taught Me to Love Again"
PERFORMER "Sarah Vaughan "
REM COMPOSER ""
INDEX 00 01:54:24
FILE "18. You Taught Me to Love Again.wav" WAVE
INDEX 01 00:00:00
 
Disc 3 (53:40)
Треклист:
01. Love and Passion (4:00)
02. Make This City Ours Tonight (2:56)
03. So Many Stars (4:09)
04. Fascinating Rhythm (3:40)
05. My Man's Gone Now (5:36)
06. Medley: But Not For Me/Love Is Here To Stay/Embraceable You/Someone To Watch Over Me (9:17)
07. Photograph (2:32)
08. Your Smile (3:08)
09. Wanting More (3:56)
10. Obsession (3:09)
11. Romance (3:32)
12. It's Simple (3:00)
13. Nothing Will Be As It Was (4:46)
 
 
Лог создания рипа
Exact Audio Copy V1.3 from 2. September 2016
EAC extraction logfile from 7. March 2017, 18:12
Sarah Vaughan / The Real... Sarah Vaughan - Disc 3
Used drive : TSSTcorpCDDVDW SE-208AB Adapter: 2 ID: 0
Read mode : Secure
Utilize accurate stream : Yes
Defeat audio cache : Yes
Make use of C2 pointers : No
Read offset correction : 6
Overread into Lead-In and Lead-Out : No
Fill up missing offset samples with silence : Yes
Delete leading and trailing silent blocks : No
Null samples used in CRC calculations : Yes
Used interface : Installed external ASPI interface
Gap handling : Appended to previous track
Used output format : User Defined Encoder
Selected bitrate : 768 kBit/s
Quality : High
Add ID3 tag : No
Command line compressor : C:\Program Files (x86)\Exact Audio Copy\Flac\flac.exe
Additional command line options : -8 -V -T "ARTIST=%artist%" -T "TITLE=%title%" -T "ALBUM=%albumtitle%" -T "DATE=%year%" -T "TRACKNUMBER=%tracknr%" -T "GENRE=%genre%" -T "COMMENT=%comment%" -T "BAND=%albuminterpret%" -T "ALBUMARTIST=%albuminterpret%" -T "COMPOSER=%composer%" %haslyrics%--tag-from-file=LYRICS="%lyricsfile%"%haslyrics% -T "DISCNUMBER=%cdnumber%" -T "TOTALDISCS=%totalcds%" -T "TOTALTRACKS=%numtracks%" %hascover%--picture="%coverfile%"%hascover% %source% -o %dest%
TOC of the extracted CD
Track | Start | Length | Start sector | End sector
---------------------------------------------------------
1 | 0:00.00 | 3:59.42 | 0 | 17966
2 | 3:59.42 | 2:56.12 | 17967 | 31178
3 | 6:55.54 | 4:08.48 | 31179 | 49826
4 | 11:04.27 | 3:40.12 | 49827 | 66338
5 | 14:44.39 | 5:36.06 | 66339 | 91544
6 | 20:20.45 | 9:17.07 | 91545 | 133326
7 | 29:37.52 | 2:31.40 | 133327 | 144691
8 | 32:09.17 | 3:08.37 | 144692 | 158828
9 | 35:17.54 | 3:55.57 | 158829 | 176510
10 | 39:13.36 | 3:09.21 | 176511 | 190706
11 | 42:22.57 | 3:31.44 | 190707 | 206575
12 | 45:54.26 | 2:59.69 | 206576 | 220069
13 | 48:54.20 | 4:45.45 | 220070 | 241489
Track 1
Filename C:\Program Files (x86)\Exact Audio Copy\Flac\01. Love and Passion.wav
Pre-gap length 0:00:02.00
Peak level 98.7 %
Extraction speed 2.5 X
Track quality 100.0 %
Test CRC C98A5A38
Copy CRC C98A5A38
Accurately ripped (confidence 1) [329E9FA4] (AR v2)
Copy OK
Track 2
Filename C:\Program Files (x86)\Exact Audio Copy\Flac\02. Make This City Ours Tonight.wav
Pre-gap length 0:00:00.67
Peak level 98.7 %
Extraction speed 2.7 X
Track quality 100.0 %
Test CRC 17E7B0C2
Copy CRC 17E7B0C2
Accurately ripped (confidence 1) [97A7FF8C] (AR v2)
Copy OK
Track 3
Filename C:\Program Files (x86)\Exact Audio Copy\Flac\03. So Many Stars.wav
Peak level 83.7 %
Extraction speed 2.5 X
Track quality 99.9 %
Test CRC 9F4ADCC6
Copy CRC 9F4ADCC6
Accurately ripped (confidence 1) [9EFD800C] (AR v2)
Copy OK
Track 4
Filename C:\Program Files (x86)\Exact Audio Copy\Flac\04. Fascinating Rhythm.wav
Pre-gap length 0:00:01.09
Peak level 98.7 %
Extraction speed 3.2 X
Track quality 100.0 %
Test CRC 8556298D
Copy CRC 8556298D
Accurately ripped (confidence 1) [2F69BF0A] (AR v2)
Copy OK
Track 5
Filename C:\Program Files (x86)\Exact Audio Copy\Flac\05. My Man's Gone Now.wav
Pre-gap length 0:00:01.48
Peak level 98.7 %
Extraction speed 3.6 X
Track quality 100.0 %
Test CRC BCB14488
Copy CRC BCB14488
Accurately ripped (confidence 1) [C6E30613] (AR v2)
Copy OK
Track 6
Filename C:\Program Files (x86)\Exact Audio Copy\Flac\06. Medley- But Not For Me,Love Is Here To Stay,Embraceable You,Someone To Watch Over Me.wav
Pre-gap length 0:00:02.00
Peak level 98.7 %
Extraction speed 3.8 X
Track quality 99.9 %
Test CRC A124F9F0
Copy CRC A124F9F0
Accurately ripped (confidence 1) [AADB9C76] (AR v2)
Copy OK
Track 7
Filename C:\Program Files (x86)\Exact Audio Copy\Flac\07. Photograph.wav
Pre-gap length 0:00:01.43
Peak level 94.3 %
Extraction speed 3.8 X
Track quality 100.0 %
Test CRC C680F203
Copy CRC C680F203
Accurately ripped (confidence 1) [E67FEB42] (AR v2)
Copy OK
Track 8
Filename C:\Program Files (x86)\Exact Audio Copy\Flac\08. Your Smile.wav
Pre-gap length 0:00:00.52
Peak level 98.7 %
Extraction speed 4.0 X
Track quality 100.0 %
Test CRC B28B937B
Copy CRC B28B937B
Accurately ripped (confidence 1) [8D51E0D8] (AR v2)
Copy OK
Track 9
Filename C:\Program Files (x86)\Exact Audio Copy\Flac\09. Wanting More.wav
Pre-gap length 0:00:01.03
Peak level 81.8 %
Extraction speed 4.1 X
Track quality 100.0 %
Test CRC 54FB9A3F
Copy CRC 54FB9A3F
Accurately ripped (confidence 1) [4B778D5C] (AR v2)
Copy OK
Track 10
Filename C:\Program Files (x86)\Exact Audio Copy\Flac\10. Obsession.wav
Pre-gap length 0:00:01.42
Peak level 98.7 %
Extraction speed 4.2 X
Track quality 100.0 %
Test CRC DE0C1A5E
Copy CRC DE0C1A5E
Accurately ripped (confidence 1) [458FC965] (AR v2)
Copy OK
Track 11
Filename C:\Program Files (x86)\Exact Audio Copy\Flac\11. Romance.wav
Pre-gap length 0:00:01.00
Peak level 98.7 %
Extraction speed 4.4 X
Track quality 100.0 %
Test CRC 66D9EFDD
Copy CRC 66D9EFDD
Accurately ripped (confidence 1) [BFACD122] (AR v2)
Copy OK
Track 12
Filename C:\Program Files (x86)\Exact Audio Copy\Flac\12. It's Simple.wav
Pre-gap length 0:00:01.69
Peak level 82.2 %
Extraction speed 3.5 X
Track quality 99.9 %
Test CRC F4FA6C8D
Copy CRC F4FA6C8D
Accurately ripped (confidence 1) [5D914B6B] (AR v2)
Copy OK
Track 13
Filename C:\Program Files (x86)\Exact Audio Copy\Flac\13. Nothing Will Be As It Was.wav
Pre-gap length 0:00:01.29
Peak level 98.7 %
Extraction speed 4.9 X
Track quality 100.0 %
Test CRC 541541AA
Copy CRC 541541AA
Accurately ripped (confidence 1) [35A2B1E8] (AR v2)
Copy OK
All tracks accurately ripped
No errors occurred
End of status report
---- CUETools DB Plugin V2.1.6
[CTDB TOCID: sE6zr_nLrSOXQeOMsCLkyaRD1QY-] found
Submit result: sE6zr_nLrSOXQeOMsCLkyaRD1QY- has been confirmed
Track | CTDB Status
1 | (3/3) Accurately ripped
2 | (3/3) Accurately ripped
3 | (3/3) Accurately ripped
4 | (3/3) Accurately ripped
5 | (3/3) Accurately ripped
6 | (3/3) Accurately ripped
7 | (3/3) Accurately ripped
8 | (3/3) Accurately ripped
9 | (3/3) Accurately ripped
10 | (3/3) Accurately ripped
11 | (3/3) Accurately ripped
12 | (3/3) Accurately ripped
13 | (3/3) Accurately ripped
==== Log checksum 5ADEBDB6B1E6CB3CB2CDE6FB6132B8C7435E67F20C141730788B8A864F93D200 ====
 
Содержание индексной карты (.CUE)
REM GENRE Jazz
REM DATE 2015
REM DISCID BD0C930D
REM COMMENT "ExactAudioCopy v1.3"
PERFORMER "Sarah Vaughan"
TITLE "The Real... Sarah Vaughan - Disc 3"
REM COMPOSER ""
FILE "01. Love and Passion.wav" WAVE
TRACK 01 AUDIO
TITLE "Love and Passion"
PERFORMER "Sarah Vaughan"
REM COMPOSER ""
INDEX 01 00:00:00
TRACK 02 AUDIO
TITLE "Make This City Ours Tonight"
PERFORMER "Sarah Vaughan"
REM COMPOSER ""
INDEX 00 03:58:50
FILE "02. Make This City Ours Tonight.wav" WAVE
INDEX 01 00:00:00
FILE "03. So Many Stars.wav" WAVE
TRACK 03 AUDIO
TITLE "So Many Stars"
PERFORMER "Sarah Vaughan"
REM COMPOSER ""
INDEX 01 00:00:00
TRACK 04 AUDIO
TITLE "Fascinating Rhythm"
PERFORMER "Sarah Vaughan"
REM COMPOSER ""
INDEX 00 04:07:39
FILE "04. Fascinating Rhythm.wav" WAVE
INDEX 01 00:00:00
TRACK 05 AUDIO
TITLE "My Man's Gone Now"
PERFORMER "Sarah Vaughan"
REM COMPOSER ""
INDEX 00 03:38:39
FILE "05. My Man's Gone Now.wav" WAVE
INDEX 01 00:00:00
TRACK 06 AUDIO
TITLE "Medley: But Not For Me/Love Is Here To Stay/Embraceable You/Someone To Watch ..."
PERFORMER "Sarah Vaughan"
REM COMPOSER ""
INDEX 00 05:34:06
FILE "06. Medley- But Not For Me,Love Is Here To Stay,Embraceable You,Someone To Watch Over Me.wav" WAVE
INDEX 01 00:00:00
TRACK 07 AUDIO
TITLE "Photograph"
PERFORMER "Sarah Vaughan"
REM COMPOSER ""
INDEX 00 09:15:39
FILE "07. Photograph.wav" WAVE
INDEX 01 00:00:00
TRACK 08 AUDIO
TITLE "Your Smile"
PERFORMER "Sarah Vaughan"
REM COMPOSER ""
INDEX 00 02:30:63
FILE "08. Your Smile.wav" WAVE
INDEX 01 00:00:00
TRACK 09 AUDIO
TITLE "Wanting More"
PERFORMER "Sarah Vaughan"
REM COMPOSER ""
INDEX 00 03:07:34
FILE "09. Wanting More.wav" WAVE
INDEX 01 00:00:00
TRACK 10 AUDIO
TITLE "Obsession"
PERFORMER "Sarah Vaughan"
REM COMPOSER ""
INDEX 00 03:54:15
FILE "10. Obsession.wav" WAVE
INDEX 01 00:00:00
TRACK 11 AUDIO
TITLE "Romance"
PERFORMER "Sarah Vaughan"
REM COMPOSER ""
INDEX 00 03:08:21
FILE "11. Romance.wav" WAVE
INDEX 01 00:00:00
TRACK 12 AUDIO
TITLE "It's Simple"
PERFORMER "Sarah Vaughan"
REM COMPOSER ""
INDEX 00 03:29:50
FILE "12. It's Simple.wav" WAVE
INDEX 01 00:00:00
TRACK 13 AUDIO
TITLE "Nothing Will Be As It Was"
PERFORMER "Sarah Vaughan"
REM COMPOSER ""
INDEX 00 02:58:40
FILE "13. Nothing Will Be As It Was.wav" WAVE
INDEX 01 00:00:00
Скачивание доступно после регистрации!!
Приватный:
Нет (DHT включён)
Размер:
758.07 Мб (794,897,873 байт) » файлов: 68
Участники:
0 раздают, 0 качают (0 участников всего)
Внешние участники:
--- [ Обновить ]
07:20
13
Нет комментариев. Ваш будет первым!