Поиск

(Vocal Jazz, Smooth Jazz, Cool Jazz) [CD] Caroline Henderson - Made In Europe - 2004, FLAC (image+.cue), lossless

(Vocal Jazz, Smooth Jazz, Cool Jazz) [CD] Caroline Henderson - Made In Europe - 2004, FLAC (image+.cue), lossless
Треклист:
Caroline Henderson / Made In Europe
Жанр: Vocal Jazz, Smooth Jazz, Cool Jazz
Носитель: CD
Год издания: 2004
Издатель (лейбл): Stunt Records
Номер по каталогу: STUCD 04152
Страна исполнителя (группы): Denmark
Аудиокодек: FLAC (*.flac)
Тип рипа: image+.cue
Битрейт аудио: lossless
Продолжительность: 00:48:37
Источник (релизер): DC hub
Наличие сканов в содержимом раздачи: нет
Треклист:
1 Lush Life
2 Monday Date
3 Made In Europe
4 Since I Fell For You
5 Use Me
6 You're My Thrill
7 Libertango
8 Mother Earth
9 It's A Man's World (Is This A Man's World?)
10 Somebody Gonna Have To Move
11 To Lay Me Down
12 Om Natten
 
Лог создания рипа
Exact Audio Copy V1.0 beta 3 from 29. August 2011
EAC extraction logfile from 14. March 2015, 15:41
Caroline Henderson / Made In Europe
Used drive : ATAPI DVD A DH20A4P Adapter: 0 ID: 0
Read mode : Secure
Utilize accurate stream : Yes
Defeat audio cache : Yes
Make use of C2 pointers : No
Read offset correction : 6
Overread into Lead-In and Lead-Out : No
Fill up missing offset samples with silence : Yes
Delete leading and trailing silent blocks : No
Null samples used in CRC calculations : Yes
Used interface : Native Win32 interface for Win NT & 2000
Used output format : User Defined Encoder
Selected bitrate : 1024 kBit/s
Quality : High
Add ID3 tag : No
Command line compressor : C:\Program Files (x86)\FLAC\flac.exe
Additional command line options : -5 -V -T "ARTIST=%artist%" -T "TITLE=%title%" -T "ALBUM=%albumtitle%" -T "DATE=%year%" -T "TRACKNUMBER=%tracknr%" -T "GENRE=%genre%" -T "COMMENT=[oStereo.ru]" %source%
TOC of the extracted CD
Track | Start | Length | Start sector | End sector
---------------------------------------------------------
1 | 0:00.00 | 3:35.07 | 0 | 16131
2 | 3:35.07 | 3:04.16 | 16132 | 29947
3 | 6:39.23 | 4:07.36 | 29948 | 48508
4 | 10:46.59 | 4:16.56 | 48509 | 67764
5 | 15:03.40 | 4:47.42 | 67765 | 89331
6 | 19:51.07 | 5:20.51 | 89332 | 113382
7 | 25:11.58 | 4:38.15 | 113383 | 134247
8 | 29:49.73 | 3:24.13 | 134248 | 149560
9 | 33:14.11 | 4:57.27 | 149561 | 171862
10 | 38:11.38 | 3:11.26 | 171863 | 186213
11 | 41:22.64 | 5:41.59 | 186214 | 211847
12 | 47:04.48 | 1:32.73 | 211848 | 218820
Range status and errors
Selected range
Filename D:\Caroline Henderson - Made In Europe - 2004.wav
Peak level 100.0 %
Extraction speed 1.2 X
Range quality 99.9 %
Test CRC AE05DD65
Copy CRC AE05DD65
Copy OK
No errors occurred
AccurateRip summary
Track 1 accurately ripped (confidence 7) [6E1C234C] (AR v2)
Track 2 accurately ripped (confidence 7) [B55EE179] (AR v2)
Track 3 accurately ripped (confidence 7) [73A9532E] (AR v2)
Track 4 accurately ripped (confidence 7) [EFDBEF79] (AR v2)
Track 5 accurately ripped (confidence 7) [69D0BB33] (AR v2)
Track 6 accurately ripped (confidence 7) [F7BF23D2] (AR v2)
Track 7 accurately ripped (confidence 7) [519C2CE0] (AR v2)
Track 8 accurately ripped (confidence 7) [DB74A761] (AR v2)
Track 9 accurately ripped (confidence 7) [5F749DB9] (AR v2)
Track 10 accurately ripped (confidence 7) [D050A25A] (AR v2)
Track 11 accurately ripped (confidence 7) [40FB7FD9] (AR v2)
Track 12 accurately ripped (confidence 7) [F27DB599] (AR v2)
All tracks accurately ripped
End of status report
==== Log checksum 289D1E37A7A48B2ABE2EBB9A7CDE5671D59186CBA24B7C04D54F7B0193FC2C6F ====
 
Содержание индексной карты (.CUE)
REM GENRE Jazz+Vocal
REM DATE 2004
REM DISCID A80B650C
REM COMMENT "ExactAudioCopy v1.0b3"
PERFORMER "Caroline Henderson"
TITLE "Made In Europe"
FILE "Caroline Henderson - Made In Europe - 2004.flac" WAVE
TRACK 01 AUDIO
TITLE "Lush Life"
PERFORMER "Caroline Henderson"
INDEX 01 00:00:00
TRACK 02 AUDIO
TITLE "Monday Date"
PERFORMER "Caroline Henderson"
INDEX 00 03:33:22
INDEX 01 03:35:07
TRACK 03 AUDIO
TITLE "Made In Europe"
PERFORMER "Caroline Henderson"
INDEX 00 06:36:65
INDEX 01 06:39:23
TRACK 04 AUDIO
TITLE "Since I Fell For You"
PERFORMER "Caroline Henderson"
INDEX 00 10:45:10
INDEX 01 10:46:59
TRACK 05 AUDIO
TITLE "Use Me"
PERFORMER "Caroline Henderson"
INDEX 00 15:00:48
INDEX 01 15:03:40
TRACK 06 AUDIO
TITLE "You're My Thrill"
PERFORMER "Caroline Henderson"
INDEX 00 19:48:42
INDEX 01 19:51:07
TRACK 07 AUDIO
TITLE "Libertango"
PERFORMER "Caroline Henderson"
INDEX 00 25:09:71
INDEX 01 25:11:58
TRACK 08 AUDIO
TITLE "Mother Earth"
PERFORMER "Caroline Henderson"
INDEX 00 29:47:58
INDEX 01 29:49:73
TRACK 09 AUDIO
TITLE "It's A Man's World (Is This A Man's World?)"
PERFORMER "Caroline Henderson"
INDEX 00 33:10:40
INDEX 01 33:14:11
TRACK 10 AUDIO
TITLE "Somebody Gonna Have To Move"
PERFORMER "Caroline Henderson"
INDEX 00 38:09:31
INDEX 01 38:11:38
TRACK 11 AUDIO
TITLE "To Lay Me Down"
PERFORMER "Caroline Henderson"
INDEX 00 41:18:62
INDEX 01 41:22:64
TRACK 12 AUDIO
TITLE "Om Natten"
PERFORMER "Caroline Henderson"
INDEX 00 47:01:06
INDEX 01 47:04:48
Скачивание доступно после регистрации!!
Приватный:
Нет (DHT включён)
Размер:
296.44 Мб (310,844,519 байт) » файлов: 5
Участники:
0 раздают, 0 качают (0 участников всего)
Внешние участники:
--- [ Обновить ]
07:59
9
Нет комментариев. Ваш будет первым!