Поиск

(Vocal Jazz, Soul) [CD] China Moses - Nightintales - 2017, FLAC (image+.cue), lossless

(Vocal Jazz, Soul) [CD] China Moses - Nightintales - 2017, FLAC (image+.cue), lossless
Треклист:
China Moses / Nightintales
Жанр: Vocal Jazz, Soul
Носитель: CD
Страна-производитель диска (релиза): Europe
Год издания: 2017
Издатель (лейбл): MPS Records ‎
Номер по каталогу: 0211734MS1
Аудиокодек: FLAC (*.flac)
Тип рипа: image+.cue
Битрейт аудио: lossless
Продолжительность: 00:46:37
Источник (релизер): локальная сеть
Наличие сканов в содержимом раздачи: да
Треклист:
1 Running
2 Put It On The Line
3 Disconnected
4 Ticking Boxes
5 Whatever
6 Watch Out
7 Nicotine
8 Lobby Call
9 Hungover
10 Blame Jerry
11 Breaking Point
 
Лог создания рипа
Exact Audio Copy V1.0 beta 3 from 29. August 2011
EAC extraction logfile from 19. May 2018, 18:28
China Moses / Nightintales
Used drive : TSSTcorpCDDVDW SH-224FB Adapter: 1 ID: 0
Read mode : Secure
Utilize accurate stream : Yes
Defeat audio cache : Yes
Make use of C2 pointers : No
Read offset correction : 6
Overread into Lead-In and Lead-Out : No
Fill up missing offset samples with silence : Yes
Delete leading and trailing silent blocks : No
Null samples used in CRC calculations : Yes
Used interface : Native Win32 interface for Win NT & 2000
Used output format : User Defined Encoder
Selected bitrate : 128 kBit/s
Quality : High
Add ID3 tag : No
Command line compressor : C:\Program Files (x86)\Exact Audio Copy\Flac\flac.exe
Additional command line options : -V -8 -T "Genre=%genre%" -T "Artist=%artist%" -T "Title=%title%" -T "Album=%albumtitle%" -T "Date=%year%" -T "Tracknumber=%tracknr%" -T "Comment=%comment%" %source%
TOC of the extracted CD
Track | Start | Length | Start sector | End sector
---------------------------------------------------------
1 | 0:00.00 | 3:36.38 | 0 | 16237
2 | 3:36.38 | 4:11.68 | 16238 | 35130
3 | 7:48.31 | 5:27.46 | 35131 | 59701
4 | 13:16.02 | 3:32.67 | 59702 | 75668
5 | 16:48.69 | 5:43.32 | 75669 | 101425
6 | 22:32.26 | 2:38.07 | 101426 | 113282
7 | 25:10.33 | 3:34.45 | 113283 | 129377
8 | 28:45.03 | 4:33.40 | 129378 | 149892
9 | 33:18.43 | 5:15.42 | 149893 | 173559
10 | 38:34.10 | 3:02.34 | 173560 | 187243
11 | 41:36.44 | 5:00.58 | 187244 | 209801
Range status and errors
Selected range
Filename D:\1\China Moses - Nightintales (2017)\China Moses - Nightintales.wav
Peak level 100.0 %
Extraction speed 3.1 X
Range quality 100.0 %
Test CRC EFAC7FAE
Copy CRC EFAC7FAE
Copy OK
No errors occurred
AccurateRip summary
Track 1 cannot be verified as accurate (confidence 20) [139C0D85], AccurateRip returned [3585FB10] (AR v2)
Track 2 cannot be verified as accurate (confidence 20) [0C145148], AccurateRip returned [C6DF2E57] (AR v2)
Track 3 cannot be verified as accurate (confidence 20) [FE4A3639], AccurateRip returned [6342EB24] (AR v2)
Track 4 cannot be verified as accurate (confidence 20) [EB2787BA], AccurateRip returned [B441C6EF] (AR v2)
Track 5 cannot be verified as accurate (confidence 20) [6EC5A713], AccurateRip returned [BCFB3389] (AR v2)
Track 6 cannot be verified as accurate (confidence 20) [2CBD3149], AccurateRip returned [8B7A0D54] (AR v2)
Track 7 cannot be verified as accurate (confidence 20) [BD89BA5F], AccurateRip returned [097A893E] (AR v2)
Track 8 cannot be verified as accurate (confidence 20) [4161C8D8], AccurateRip returned [F4EC0D24] (AR v2)
Track 9 cannot be verified as accurate (confidence 20) [4B8488E4], AccurateRip returned [1A62BB73] (AR v2)
Track 10 cannot be verified as accurate (confidence 20) [38E5ED32], AccurateRip returned [09E56872] (AR v2)
Track 11 cannot be verified as accurate (confidence 20) [C2280508], AccurateRip returned [3279B284] (AR v2)
No tracks could be verified as accurate
You may have a different pressing from the one(s) in the database
End of status report
==== Log checksum 2B6CA7A3CBA37D8ACB474917CCB781AD25EF10BF4853D767D78DFE86D1E53631 ====
 
Содержание индексной карты (.CUE)
REM GENRE Jazz
REM DATE 2017
REM DISCID 7E0AED0B
REM COMMENT "ExactAudioCopy v1.0b3"
PERFORMER "China Moses"
TITLE "Nightintales"
FILE "China Moses - Nightintales.flac" WAVE
TRACK 01 AUDIO
TITLE "Running"
PERFORMER "China Moses"
ISRC FR7Q61700101
INDEX 01 00:00:00
TRACK 02 AUDIO
TITLE "Put It On The Line"
PERFORMER "China Moses"
ISRC FR7Q61700102
INDEX 01 03:36:38
TRACK 03 AUDIO
TITLE "Disconnected"
PERFORMER "China Moses"
ISRC FR7Q61700103
INDEX 01 07:48:31
TRACK 04 AUDIO
TITLE "Ticking Boxes"
PERFORMER "China Moses"
ISRC FR7Q61700104
INDEX 01 13:16:02
TRACK 05 AUDIO
TITLE "Whatever"
PERFORMER "China Moses"
ISRC FR7Q61700105
INDEX 01 16:48:69
TRACK 06 AUDIO
TITLE "Watch Out"
PERFORMER "China Moses"
ISRC FR7Q61700106
INDEX 01 22:32:26
TRACK 07 AUDIO
TITLE "Nicotine"
PERFORMER "China Moses"
ISRC FR7Q61700107
INDEX 01 25:10:33
TRACK 08 AUDIO
TITLE "Lobby Call"
PERFORMER "China Moses"
ISRC FR7Q61700108
INDEX 01 28:45:03
TRACK 09 AUDIO
TITLE "Hungover"
PERFORMER "China Moses"
ISRC FR7Q61700109
INDEX 01 33:18:43
TRACK 10 AUDIO
TITLE "Blame Jerry"
PERFORMER "China Moses"
ISRC FR7Q61700110
INDEX 01 38:34:10
TRACK 11 AUDIO
TITLE "Breaking Point"
PERFORMER "China Moses"
ISRC FR7Q61700111
INDEX 01 41:36:44
 
DR
foobar2000 1.3.17 / Замер динамического диапазона (DR) 1.1.1
Дата отчёта: 2018-08-22 10:45:55
--------------------------------------------------------------------------------
Анализ: China Moses / Nightintales
--------------------------------------------------------------------------------
DR Пики RMS Продолжительность трека
--------------------------------------------------------------------------------
DR5 -0.04 дБ -7.31 дБ 3:37 01-Running
DR6 -0.12 дБ -8.36 дБ 4:12 02-Put It On The Line
DR8 0.00 дБ -10.04 дБ 5:28 03-Disconnected
DR7 -0.24 дБ -10.12 дБ 3:33 04-Ticking Boxes
DR10 -0.30 дБ -13.49 дБ 5:43 05-Whatever
DR6 0.00 дБ -7.71 дБ 2:38 06-Watch Out
DR6 -0.27 дБ -10.20 дБ 3:35 07-Nicotine
DR9 -0.31 дБ -11.24 дБ 4:34 08-Lobby Call
DR6 -0.22 дБ -9.05 дБ 5:16 09-Hungover
DR9 -0.17 дБ -11.01 дБ 3:02 10-Blame Jerry
DR6 -0.15 дБ -9.27 дБ 5:01 11-Breaking Point
--------------------------------------------------------------------------------
Количество треков: 11
Реальные значения DR: DR7
Частота: 44100 Гц
Каналов: 2
Разрядность: 16
Битрейт: 857 кбит/с
Кодек: FLAC
================================================================================
 
Спектр
Приватный:
Нет (DHT включён)
Размер:
288.98 Мб (303,017,327 байт) » файлов: 10
Участники:
0 раздают, 0 качают (0 участников всего)
Внешние участники:
1 раздают, 0 качают (1 участников всего) [ Обновить ]
Никого нет на раздаче - пишите личное сообщение M0p94ok
No seeders - write personal message to M0p94ok
08:00
22
Нет комментариев. Ваш будет первым!