Поиск

(Vocal Jazz, Smooth Jazz, Cool Jazz) [CD] Caroline Henderson - Keeper Of The Flame - 2009, FLAC (image+.cue), lossless

(Vocal Jazz, Smooth Jazz, Cool Jazz) [CD] Caroline Henderson - Keeper Of The Flame - 2009, FLAC (image+.cue), lossless
Треклист:
Caroline Henderson / Keeper Of The Flame
Жанр: Vocal Jazz, Smooth Jazz, Cool Jazz
Носитель: CD
Год издания: 2009
Издатель (лейбл): Copenhagen Records
Номер по каталогу: CPHREC 0149-2
Страна исполнителя (группы): Denmark
Аудиокодек: FLAC (*.flac)
Тип рипа: image+.cue
Битрейт аудио: lossless
Продолжительность: 00:44:04
Источник (релизер): DC hub
Наличие сканов в содержимом раздачи: нет
Треклист:
01 Caravan
02 Keeper Of The Flame
03 It Hurts Me Too
04 Get Out Of Town
05 Nature Boy
06 Evolution
07 Ring Them Bells
08 Fever
09 The First Time Ever I Saw Your Face
10 Yesterday Is Here
11 This Is Love
12 Goodbye
13 For All We Know
 
Лог создания рипа
Exact Audio Copy V1.0 beta 3 from 29. August 2011
EAC extraction logfile from 14. July 2015, 13:45
Caroline Henderson / Keeper of the Flame
Used drive : ATAPI DVD A DH20A4P Adapter: 0 ID: 0
Read mode : Secure
Utilize accurate stream : Yes
Defeat audio cache : Yes
Make use of C2 pointers : No
Read offset correction : 6
Overread into Lead-In and Lead-Out : No
Fill up missing offset samples with silence : Yes
Delete leading and trailing silent blocks : No
Null samples used in CRC calculations : Yes
Used interface : Native Win32 interface for Win NT & 2000
Used output format : User Defined Encoder
Selected bitrate : 1024 kBit/s
Quality : High
Add ID3 tag : No
Command line compressor : C:\Program Files (x86)\FLAC\flac.exe
Additional command line options : -5 -V -T "ARTIST=%artist%" -T "TITLE=%title%" -T "ALBUM=%albumtitle%" -T "DATE=%year%" -T "TRACKNUMBER=%tracknr%" -T "GENRE=%genre%" -T "COMMENT=[oStereo.ru]" %source%
TOC of the extracted CD
Track | Start | Length | Start sector | End sector
---------------------------------------------------------
1 | 0:00.00 | 2:58.67 | 0 | 13416
2 | 2:58.67 | 3:38.50 | 13417 | 29816
3 | 6:37.42 | 2:45.63 | 29817 | 42254
4 | 9:23.30 | 3:28.64 | 42255 | 57918
5 | 12:52.19 | 2:59.34 | 57919 | 71377
6 | 15:51.53 | 3:38.26 | 71378 | 87753
7 | 19:30.04 | 3:02.15 | 87754 | 101418
8 | 22:32.19 | 3:27.43 | 101419 | 116986
9 | 25:59.62 | 3:50.50 | 116987 | 134286
10 | 29:50.37 | 4:07.54 | 134287 | 152865
11 | 33:58.16 | 3:09.18 | 152866 | 167058
12 | 37:07.34 | 3:07.61 | 167059 | 181144
13 | 40:15.20 | 3:49.15 | 181145 | 198334
Range status and errors
Selected range
Filename D:\Caroline Henderson - Keeper of the Flame - 2009.wav
Peak level 98.8 %
Extraction speed 1.2 X
Range quality 100.0 %
Test CRC 866482F0
Copy CRC 866482F0
Copy OK
No errors occurred
AccurateRip summary
Track 1 accurately ripped (confidence 7) [11F3CDFE] (AR v2)
Track 2 accurately ripped (confidence 7) [5021C5A9] (AR v2)
Track 3 accurately ripped (confidence 7) [C9F35BD3] (AR v2)
Track 4 accurately ripped (confidence 7) [090CFD24] (AR v2)
Track 5 accurately ripped (confidence 7) [D6EEE527] (AR v2)
Track 6 accurately ripped (confidence 7) [64BA4AF8] (AR v2)
Track 7 accurately ripped (confidence 7) [E4C54EA2] (AR v2)
Track 8 accurately ripped (confidence 7) [407EB4A1] (AR v2)
Track 9 accurately ripped (confidence 7) [6990FF9F] (AR v2)
Track 10 accurately ripped (confidence 7) [88E1E906] (AR v2)
Track 11 accurately ripped (confidence 7) [0815713F] (AR v2)
Track 12 accurately ripped (confidence 7) [7D7EF902] (AR v2)
Track 13 accurately ripped (confidence 7) [91DC1C67] (AR v2)
All tracks accurately ripped
End of status report
==== Log checksum 6813DDE3968C41E80385D20569162194AE3E60162A690B75F1EAFF8F80D262EF ====
 
Содержание индексной карты (.CUE)
REM GENRE Jazz
REM DATE 2009
REM DISCID AE0A540D
REM COMMENT "ExactAudioCopy v1.0b3"
PERFORMER "Caroline Henderson"
TITLE "Keeper of the Flame"
FILE "Caroline Henderson - Keeper of the Flame - 2009.flac" WAVE
TRACK 01 AUDIO
TITLE "Caravan"
PERFORMER "Caroline Henderson"
INDEX 01 00:00:00
TRACK 02 AUDIO
TITLE "Keeper of the flame"
PERFORMER "Caroline Henderson"
INDEX 00 02:58:28
INDEX 01 02:58:67
TRACK 03 AUDIO
TITLE "It Hurts Me Too"
PERFORMER "Caroline Henderson"
INDEX 00 06:35:68
INDEX 01 06:37:42
TRACK 04 AUDIO
TITLE "Get Out Of Town"
PERFORMER "Caroline Henderson"
INDEX 00 09:22:11
INDEX 01 09:23:30
TRACK 05 AUDIO
TITLE "Nature Boy"
PERFORMER "Caroline Henderson"
INDEX 00 12:51:03
INDEX 01 12:52:19
TRACK 06 AUDIO
TITLE "Evolution"
PERFORMER "Caroline Henderson"
INDEX 00 15:50:33
INDEX 01 15:51:53
TRACK 07 AUDIO
TITLE "Ring Them Bells"
PERFORMER "Caroline Henderson"
INDEX 00 19:29:21
INDEX 01 19:30:04
TRACK 08 AUDIO
TITLE "Fever"
PERFORMER "Caroline Henderson"
INDEX 01 22:32:19
TRACK 09 AUDIO
TITLE "First Time I Ever Saw Your Face"
PERFORMER "Caroline Henderson"
INDEX 00 25:57:69
INDEX 01 25:59:62
TRACK 10 AUDIO
TITLE "Yesterday Is Here"
PERFORMER "Caroline Henderson"
INDEX 00 29:49:25
INDEX 01 29:50:37
TRACK 11 AUDIO
TITLE "This is love"
PERFORMER "Caroline Henderson"
INDEX 00 33:57:38
INDEX 01 33:58:16
TRACK 12 AUDIO
TITLE "Goodbye"
PERFORMER "Caroline Henderson"
INDEX 00 37:06:71
INDEX 01 37:07:34
TRACK 13 AUDIO
TITLE "For All We Know"
PERFORMER "Caroline Henderson"
INDEX 00 40:14:12
INDEX 01 40:15:20
Скачивание доступно после регистрации!!
Приватный:
Нет (DHT включён)
Размер:
235.77 Мб (247,221,094 байт) » файлов: 5
Участники:
0 раздают, 0 качают (0 участников всего)
Внешние участники:
--- [ Обновить ]
07:58
2
Нет комментариев. Ваш будет первым!