Поиск

(Vocal Jazz) [CD] Caroline Henderson ‎ - No. 8 - 2008, FLAC (image+.cue), lossless

(Vocal Jazz) [CD] Caroline Henderson ‎ - No. 8 - 2008, FLAC (image+.cue), lossless
Треклист:
Caroline Henderson ‎ / No. 8
Жанр: Vocal Jazz
Носитель: CD
Год издания: 2008
Издатель (лейбл): Stunt Records
Номер по каталогу: STUCD 08042
Страна исполнителя (группы): Denmark
Аудиокодек: FLAC (*.flac)
Тип рипа: image+.cue
Битрейт аудио: lossless
Продолжительность: 00:42:54
Источник (релизер): DC hub
Наличие сканов в содержимом раздачи: нет
Треклист:
1 Ribbon Bow
2 Bang Bang
3 Unchained Melody
4 I Concentrate On You
5 But Not For Me
6 Everywhere
7 There Will Be Time Enough For Rocking When We're Old
8 It Ain't Necessarily So
9 When You're Smiling
10 I Got Lost In His Arms
11 Riverman
12 Last Night When We Were Young
13 Love Is Like A Cigarette
 
Лог создания рипа
Exact Audio Copy V1.0 beta 3 from 29. August 2011
EAC extraction logfile from 10. July 2015, 15:56
Caroline Henderson / No. 8
Used drive : ATAPI DVD A DH20A4P Adapter: 0 ID: 0
Read mode : Secure
Utilize accurate stream : Yes
Defeat audio cache : Yes
Make use of C2 pointers : No
Read offset correction : 6
Overread into Lead-In and Lead-Out : No
Fill up missing offset samples with silence : Yes
Delete leading and trailing silent blocks : No
Null samples used in CRC calculations : Yes
Used interface : Native Win32 interface for Win NT & 2000
Used output format : User Defined Encoder
Selected bitrate : 1024 kBit/s
Quality : High
Add ID3 tag : No
Command line compressor : C:\Program Files (x86)\FLAC\flac.exe
Additional command line options : -5 -V -T "ARTIST=%artist%" -T "TITLE=%title%" -T "ALBUM=%albumtitle%" -T "DATE=%year%" -T "TRACKNUMBER=%tracknr%" -T "GENRE=%genre%" -T "COMMENT=[oStereo.ru]" %source%
TOC of the extracted CD
Track | Start | Length | Start sector | End sector
---------------------------------------------------------
1 | 0:00.00 | 3:01.24 | 0 | 13598
2 | 3:01.24 | 3:12.63 | 13599 | 28061
3 | 6:14.12 | 3:03.74 | 28062 | 41860
4 | 9:18.11 | 3:00.12 | 41861 | 55372
5 | 12:18.23 | 3:44.74 | 55373 | 72246
6 | 16:03.22 | 3:03.43 | 72247 | 86014
7 | 19:06.65 | 2:18.25 | 86015 | 96389
8 | 21:25.15 | 4:35.74 | 96390 | 117088
9 | 26:01.14 | 2:31.10 | 117089 | 128423
10 | 28:32.24 | 3:42.03 | 128424 | 145076
11 | 32:14.27 | 4:42.09 | 145077 | 166235
12 | 36:56.36 | 2:54.25 | 166236 | 179310
13 | 39:50.61 | 3:04.05 | 179311 | 193115
Range status and errors
Selected range
Filename D:\Caroline Henderson - No 8 - 2008 - Copenhagen Records.wav
Peak level 100.0 %
Extraction speed 1.2 X
Range quality 100.0 %
Test CRC E770D140
Copy CRC E770D140
Copy OK
No errors occurred
AccurateRip summary
Track 1 accurately ripped (confidence 7) [88E0459A] (AR v2)
Track 2 accurately ripped (confidence 7) [BFDF1BF4] (AR v2)
Track 3 accurately ripped (confidence 7) [44E59E42] (AR v2)
Track 4 accurately ripped (confidence 7) [29A0312B] (AR v2)
Track 5 accurately ripped (confidence 7) [FA568247] (AR v2)
Track 6 accurately ripped (confidence 7) [9B5B421E] (AR v2)
Track 7 accurately ripped (confidence 7) [3C7D2C6D] (AR v2)
Track 8 accurately ripped (confidence 7) [558E505A] (AR v2)
Track 9 accurately ripped (confidence 7) [D9215603] (AR v2)
Track 10 accurately ripped (confidence 7) [3CEDA6B3] (AR v2)
Track 11 accurately ripped (confidence 7) [4FDDF5E9] (AR v2)
Track 12 accurately ripped (confidence 7) [518636B3] (AR v2)
Track 13 accurately ripped (confidence 7) [E35B4027] (AR v2)
All tracks accurately ripped
End of status report
==== Log checksum 7E6DD6CAFB5C5EE8DD07B915AA4258FA3AA99F86045ED238E64E06ACFA33ED00 ====
 
Содержание индексной карты (.CUE)
REM GENRE Classical
REM DATE 2008
REM DISCID B40A0E0D
REM COMMENT "ExactAudioCopy v1.0b3"
PERFORMER "Caroline Henderson"
TITLE "No. 8"
FILE "Caroline Henderson - No 8 - 2008 - Copenhagen Records.flac" WAVE
TRACK 01 AUDIO
TITLE "Ribbon Bow"
PERFORMER " "
INDEX 01 00:00:00
TRACK 02 AUDIO
TITLE "Bang Bang"
PERFORMER " "
INDEX 01 03:01:24
TRACK 03 AUDIO
TITLE "Unchained Mellody"
PERFORMER " "
INDEX 01 06:14:12
TRACK 04 AUDIO
TITLE "I Concentrate On You"
PERFORMER " "
INDEX 01 09:18:11
TRACK 05 AUDIO
TITLE "But Not For Me"
PERFORMER " "
INDEX 01 12:18:23
TRACK 06 AUDIO
TITLE "Everywhere I Go"
PERFORMER " "
INDEX 01 16:03:22
TRACK 07 AUDIO
TITLE "Time Enough For Rocking When We Are Old"
PERFORMER " "
INDEX 01 19:06:65
TRACK 08 AUDIO
TITLE "It Aint Necessarily So"
PERFORMER " "
INDEX 01 21:25:15
TRACK 09 AUDIO
TITLE "When You Are Smiling"
PERFORMER " "
INDEX 01 26:01:14
TRACK 10 AUDIO
TITLE "I Got Lost In His Arms"
PERFORMER " "
INDEX 01 28:32:24
TRACK 11 AUDIO
TITLE "Riverman"
PERFORMER " "
INDEX 01 32:14:27
TRACK 12 AUDIO
TITLE "Last Night When We Were Young"
PERFORMER " "
INDEX 01 36:56:36
TRACK 13 AUDIO
TITLE "Love Is Like A Cigarette"
PERFORMER " "
INDEX 01 39:50:61
Скачивание доступно после регистрации!!
Приватный:
Нет (DHT включён)
Размер:
222.55 Мб (233,358,259 байт) » файлов: 5
Участники:
0 раздают, 0 качают (0 участников всего)
Внешние участники:
--- [ Обновить ]
07:58
8
Нет комментариев. Ваш будет первым!