Поиск

(Vocal Jazz) [CD] Caroline Henderson - Jazz, Love & Henderson - 2011, FLAC (image+.cue), lossless

(Vocal Jazz) [CD] Caroline Henderson - Jazz, Love & Henderson - 2011, FLAC (image+.cue), lossless
Треклист:
Caroline Henderson / Jazz, Love & Henderson
Жанр: Vocal Jazz
Носитель: CD
Страна-производитель диска (релиза): Denmark
Год издания: 2011
Издатель (лейбл): Copenhagen Records
Аудиокодек: FLAC (*.flac)
Тип рипа: image+.cue
Битрейт аудио: lossless
Продолжительность: 00:29:01
Источник (релизер): DC hub
Наличие сканов в содержимом раздачи: нет
Треклист:
1 The World Goes Around
2 Corruptible
3 Trilingual Love Song
4 The Evil Eye
5 Calamity Lane
6 From New York
7 I Am She
8 Time Is Forever Young
 
Лог создания рипа
Exact Audio Copy V1.0 beta 3 from 29. August 2011
EAC extraction logfile from 14. July 2015, 15:14
Caroline Henderson / Jazz, Love & Henderson
Used drive : ATAPI DVD A DH20A4P Adapter: 0 ID: 0
Read mode : Secure
Utilize accurate stream : Yes
Defeat audio cache : Yes
Make use of C2 pointers : No
Read offset correction : 6
Overread into Lead-In and Lead-Out : No
Fill up missing offset samples with silence : Yes
Delete leading and trailing silent blocks : No
Null samples used in CRC calculations : Yes
Used interface : Native Win32 interface for Win NT & 2000
Used output format : User Defined Encoder
Selected bitrate : 1024 kBit/s
Quality : High
Add ID3 tag : No
Command line compressor : C:\Program Files (x86)\FLAC\flac.exe
Additional command line options : -5 -V -T "ARTIST=%artist%" -T "TITLE=%title%" -T "ALBUM=%albumtitle%" -T "DATE=%year%" -T "TRACKNUMBER=%tracknr%" -T "GENRE=%genre%" -T "COMMENT=[oStereo.ru]" %source%
TOC of the extracted CD
Track | Start | Length | Start sector | End sector
---------------------------------------------------------
1 | 0:00.00 | 3:33.34 | 0 | 16008
2 | 3:33.34 | 3:41.56 | 16009 | 32639
3 | 7:15.15 | 3:42.14 | 32640 | 49303
4 | 10:57.29 | 4:07.51 | 49304 | 67879
5 | 15:05.05 | 2:58.67 | 67880 | 81296
6 | 18:03.72 | 3:27.42 | 81297 | 96863
7 | 21:31.39 | 3:52.61 | 96864 | 114324
8 | 25:24.25 | 3:36.74 | 114325 | 130598
Range status and errors
Selected range
Filename D:\Caroline Henderson - Jazz, Love & Henderson - 2011.wav
Peak level 98.8 %
Extraction speed 1.2 X
Range quality 99.9 %
Test CRC CAC1974C
Copy CRC CAC1974C
Copy OK
No errors occurred
AccurateRip summary
Track 1 accurately ripped (confidence 8) [14FEDCBE] (AR v2)
Track 2 accurately ripped (confidence 8) [99992516] (AR v2)
Track 3 accurately ripped (confidence 8) [267D63CF] (AR v2)
Track 4 accurately ripped (confidence 8) [82896B7C] (AR v2)
Track 5 accurately ripped (confidence 8) [75D03CB6] (AR v2)
Track 6 accurately ripped (confidence 8) [D93C369D] (AR v2)
Track 7 accurately ripped (confidence 8) [36C94DE5] (AR v2)
Track 8 accurately ripped (confidence 8) [D1433105] (AR v2)
All tracks accurately ripped
End of status report
==== Log checksum 4E291B49BC2C303D7ED53C13DE483A872AE106DD83913C5B4DBF375917110022 ====
 
Содержание индексной карты (.CUE)
REM GENRE Jazz
REM DATE 2011
REM DISCID 6706CD08
REM COMMENT "ExactAudioCopy v1.0b3"
PERFORMER "Caroline Henderson"
TITLE "Jazz, Love & Henderson"
FILE "Caroline Henderson - Jazz, Love & Henderson - 2011.flac" WAVE
TRACK 01 AUDIO
TITLE "The World Goes Around"
PERFORMER "Caroline Henderson"
INDEX 01 00:00:00
TRACK 02 AUDIO
TITLE "Corruptible"
PERFORMER "Caroline Henderson"
INDEX 01 03:33:34
TRACK 03 AUDIO
TITLE "Trilingual Love Song"
PERFORMER "Caroline Henderson"
INDEX 00 07:14:69
INDEX 01 07:15:15
TRACK 04 AUDIO
TITLE "The Evil Eye"
PERFORMER "Caroline Henderson"
INDEX 00 10:57:20
INDEX 01 10:57:29
TRACK 05 AUDIO
TITLE "Calamity Lane"
PERFORMER "Caroline Henderson"
INDEX 00 15:04:52
INDEX 01 15:05:05
TRACK 06 AUDIO
TITLE "From New York"
PERFORMER "Caroline Henderson"
INDEX 00 18:03:48
INDEX 01 18:03:72
TRACK 07 AUDIO
TITLE "I Am She"
PERFORMER "Caroline Henderson"
INDEX 00 21:30:60
INDEX 01 21:31:39
TRACK 08 AUDIO
TITLE "Time Is Forever Young"
PERFORMER "Caroline Henderson"
INDEX 00 25:24:15
INDEX 01 25:24:25
Приватный:
Нет (DHT включён)
Размер:
180.91 Мб (189,701,681 байт) » файлов: 5
Участники:
0 раздают, 0 качают (0 участников всего)
Внешние участники:
8 раздают, 2 качают (10 участников всего) [ Обновить ]
07:57
10
Нет комментариев. Ваш будет первым!