Поиск

(Vocal Jazz) [CD] Barbara Lea - The Devil Is Afraid of Music - 1997 (1977), FLAC (image+.cue), lossless

(Vocal Jazz) [CD] Barbara Lea - The Devil Is Afraid of Music - 1997 (1977), FLAC (image+.cue), lossless
Треклист:
Barbara Lea / The Devil Is Afraid of Music
Жанр: Vocal Jazz
Носитель: CD
Год издания: 1997 (1977)
Издатель (лейбл): Audiophile
Страна исполнителя (группы): US
Аудиокодек: FLAC (*.flac)
Тип рипа: image+.cue
Битрейт аудио: lossless
Продолжительность: 00:54:30
Источник (релизер): DC hub
Наличие сканов в содержимом раздачи: нет
Треклист:
1 The Devil Is Afraid of Music (1927)
2 Don't Smoke in Bed
3 Deep Summer
4 Think Well of Me
5 Born to the Bayou
6 Run for the Roundhouse, Nellie
7 Guess I'll Go Back Home (This Summer)
8 Lonely Acres
9 Deep Elm (You Tell 'Em I'm Blue)
10 Peaceful Valley
11 A Woman Alone with the Blues
12 A Cottage for Sale
13 'Tain't so, Honey, 'Tain't So
14 Old Folks
15 Little High Chairman
16 My Egotism Is Hurtin' Me
17 'Round My Old Deserted Farm
18 The Devil Is Afraid of Music (1950)
 
Лог создания рипа
Exact Audio Copy V1.0 beta 1 from 15. November 2010
EAC extraction logfile from 12. January 2011, 14:58
Barbara Lea / The Devil Is Afraid Of Music: Presenting the music of Willard Robison
Used drive : ATAPI DVD A DH20A4P Adapter: 1 ID: 0
Read mode : Secure
Utilize accurate stream : Yes
Defeat audio cache : Yes
Make use of C2 pointers : No
Read offset correction : 6
Overread into Lead-In and Lead-Out : No
Fill up missing offset samples with silence : Yes
Delete leading and trailing silent blocks : No
Null samples used in CRC calculations : Yes
Used interface : Installed external ASPI interface
Used output format : User Defined Encoder
Selected bitrate : 1024 kBit/s
Quality : High
Add ID3 tag : No
Command line compressor : C:\Program Files\Exact Audio Copy\Flac\flac.exe
Additional command line options : -8 -V -T "ARTIST=%a" -T "TITLE=%t" -T "ALBUM=%g" -T "DATE=%y" -T "TRACKNUMBER=%n" -T "GENRE=%m" -T "COMMENT=EAC FLAC -8" %s
TOC of the extracted CD
Track | Start | Length | Start sector | End sector
---------------------------------------------------------
1 | 0:00.00 | 1:48.67 | 0 | 8166
2 | 1:48.67 | 2:35.70 | 8167 | 19861
3 | 4:24.62 | 2:36.05 | 19862 | 31566
4 | 7:00.67 | 3:13.08 | 31567 | 46049
5 | 10:14.00 | 4:32.42 | 46050 | 66491
6 | 14:46.42 | 2:58.70 | 66492 | 79911
7 | 17:45.37 | 3:19.17 | 79912 | 94853
8 | 21:04.54 | 2:50.26 | 94854 | 107629
9 | 23:55.05 | 4:54.30 | 107630 | 129709
10 | 28:49.35 | 1:50.52 | 129710 | 138011
11 | 30:40.12 | 3:51.63 | 138012 | 155399
12 | 34:32.00 | 3:20.17 | 155400 | 170416
13 | 37:52.17 | 2:35.08 | 170417 | 182049
14 | 40:27.25 | 3:19.40 | 182050 | 197014
15 | 43:46.65 | 3:31.17 | 197015 | 212856
16 | 47:18.07 | 2:36.38 | 212857 | 224594
17 | 49:54.45 | 2:42.25 | 224595 | 236769
18 | 52:36.70 | 1:53.55 | 236770 | 245299
Range status and errors
Selected range
Filename D:\Barbara Lea - The Devil Is Afraid Of Music- Presenting the music of Willard Robison - 1997 - Audiophile Records.wav
Peak level 98.9 %
Extraction speed 0.1 X
Range quality 100.0 %
Test CRC 77F132E1
Copy CRC 77F132E1
Copy OK
No errors occurred
AccurateRip summary
Track 1 not present in database
Track 2 not present in database
Track 3 not present in database
Track 4 not present in database
Track 5 not present in database
Track 6 not present in database
Track 7 not present in database
Track 8 not present in database
Track 9 not present in database
Track 10 not present in database
Track 11 not present in database
Track 12 not present in database
Track 13 not present in database
Track 14 not present in database
Track 15 not present in database
Track 16 not present in database
Track 17 not present in database
Track 18 not present in database
None of the tracks are present in the AccurateRip database
End of status report
==== Log checksum AFB5CA246A84F79B30E87804870505E4E6776F6D7E8542C3B77985A5245FD6D1 ====
 
Содержание индексной карты (.CUE)
REM GENRE Jazz
REM DATE 1996
REM DISCID FE0CC612
REM COMMENT "ExactAudioCopy v1.0b1"
PERFORMER "Barbara Lea"
TITLE "The Devil Is Afraid Of Music: Presenting the music of Willard Robison"
FILE "Barbara Lea - The Devil Is Afraid Of Music- Presenting the music of Willard Robison - 1997 - Audiophile Records.flac" WAVE
TRACK 01 AUDIO
TITLE "The Devil Is Afraid Of Music"
PERFORMER "Barbara Lea"
INDEX 01 00:00:00
TRACK 02 AUDIO
TITLE "Don't Smoke In Bed"
PERFORMER "Barbara Lea"
INDEX 00 01:46:33
INDEX 01 01:48:67
TRACK 03 AUDIO
TITLE "Deep Summer"
PERFORMER "Barbara Lea"
INDEX 00 04:22:18
INDEX 01 04:24:62
TRACK 04 AUDIO
TITLE "Think Well Of Me"
PERFORMER "Barbara Lea"
INDEX 00 06:58:20
INDEX 01 07:00:67
TRACK 05 AUDIO
TITLE "Born To The Bayou"
PERFORMER "Barbara Lea"
INDEX 00 10:11:30
INDEX 01 10:14:00
TRACK 06 AUDIO
TITLE "Run For The Roundhouse, Nellie"
PERFORMER "Barbara Lea"
INDEX 00 14:43:73
INDEX 01 14:46:42
TRACK 07 AUDIO
TITLE "Guess I'll Go Back Home (This Summer)"
PERFORMER "Barbara Lea"
INDEX 00 17:42:68
INDEX 01 17:45:37
TRACK 08 AUDIO
TITLE "Lonely Acres"
PERFORMER "Barbara Lea"
INDEX 00 21:02:10
INDEX 01 21:04:54
TRACK 09 AUDIO
TITLE "Deep Elm, (You Tell 'Em I'm Blue)"
PERFORMER "Barbara Lea"
INDEX 00 23:52:35
INDEX 01 23:55:05
TRACK 10 AUDIO
TITLE "Peaceful Valley"
PERFORMER "Barbara Lea"
INDEX 00 28:46:65
INDEX 01 28:49:35
TRACK 11 AUDIO
TITLE "A Woman Alone With The Blues"
PERFORMER "Barbara Lea"
INDEX 00 30:37:43
INDEX 01 30:40:12
TRACK 12 AUDIO
TITLE "A Cottage For Sale"
PERFORMER "Barbara Lea"
INDEX 00 34:29:30
INDEX 01 34:32:00
TRACK 13 AUDIO
TITLE "'Tain't So, Honey, 'Tain't So"
PERFORMER "Barbara Lea"
INDEX 00 37:49:48
INDEX 01 37:52:17
TRACK 14 AUDIO
TITLE "Old Folks"
PERFORMER "Barbara Lea"
INDEX 00 40:25:03
INDEX 01 40:27:25
TRACK 15 AUDIO
TITLE "Little High Chairman"
PERFORMER "Barbara Lea"
INDEX 00 43:44:20
INDEX 01 43:46:65
TRACK 16 AUDIO
TITLE "My Egotism Is Hurtin' Me"
PERFORMER "Barbara Lea"
INDEX 00 47:15:38
INDEX 01 47:18:07
TRACK 17 AUDIO
TITLE "'Round My Old Deserted Farm"
PERFORMER "Barbara Lea"
INDEX 00 49:52:00
INDEX 01 49:54:45
TRACK 18 AUDIO
TITLE "The Devil Is Afraid Of Music (circa 1950)"
PERFORMER "Barbara Lea"
INDEX 00 52:34:25
INDEX 01 52:36:70
 
Состав
Bass – Mel Alexander
Clarinet – Bob Mitchell
Drums – Tony Cooper
Piano – Loonis McGlohon
Скачивание доступно после регистрации!!
Приватный:
Нет (DHT включён)
Размер:
258.83 Мб (271,401,658 байт) » файлов: 4
Участники:
0 раздают, 0 качают (0 участников всего)
Внешние участники:
3 раздают, 1 качают (4 участников всего) [ Обновить ]
07:56
5
Нет комментариев. Ваш будет первым!