Поиск

(Vocal Jazz, Pop) [CD] Bing Crosby - The Legendary Bing Crosby - 1999, FLAC (tracks+.cue), lossless

(Vocal Jazz, Pop) [CD] Bing Crosby - The Legendary Bing Crosby - 1999, FLAC (tracks+.cue), lossless
Треклист:
Bing Crosby - The Legendary Bing Crosby
Жанр: Vocal Jazz, Pop
Носитель: CD
Страна-производитель диска (релиза): UK
Год издания: 1999
Издатель (лейбл): Metrodome
Номер по каталогу: METRO 253
Страна исполнителя (группы): USA
Аудиокодек: FLAC (*.flac)
Тип рипа: tracks+.cue
Битрейт аудио: lossless
Продолжительность: 46:13
Источник (релизер): artmuss
Наличие сканов в содержимом раздачи: Front, Back
Треклист:
01. Lady of Spain 2:31
02. The Very Thought of You 2:58
03. June in January 3:13
04. Zip-A-Dee-Doo-Dah 1:46
05. P.S. I Love You 3:35
06. If This Isn't Love 1:46
07. Ole Buttermilk Sky 2:18
08. Great Day 1:43
09. I Got the Sun in the Morning 2:31
10. May I? 2:58
11. It's a Good Day 2:12
12. You Go to My Head 3:49
13. The Old Lamplighter 2:19
14. With Every Breath I Take 3:11
15. Temptation 3:10
16. You're Getting to Be a Habit With Me 2:52
17. Someday, Sweetheart 3:13
 
Лог создания рипа
Exact Audio Copy V0.99 prebeta 4 from 23. January 2008
EAC extraction logfile from 25. August 2008, 18:52
Bing Crosby / The Legendary Bing Crosby
Used drive : _NEC DVD_RW ND-3500AG Adapter: 0 ID: 0
Read mode : Secure
Utilize accurate stream : Yes
Defeat audio cache : Yes
Make use of C2 pointers : No
Read offset correction : 48
Overread into Lead-In and Lead-Out : No
Fill up missing offset samples with silence : Yes
Delete leading and trailing silent blocks : No
Null samples used in CRC calculations : Yes
Used interface : Native Win32 interface for Win NT & 2000
Gap handling : Appended to previous track
Used output format : User Defined Encoder
Selected bitrate : 768 kBit/s
Quality : High
Add ID3 tag : No
Command line compressor : C:\Program Files (x86)\Exact Audio Copy\FLAC\FLAC.EXE
Additional command line options : -V -8 -T "artist=%a" -T "title=%t" -T "album=%g" -T "date=%y" -T "tracknumber=%n" -T "genre=%m" %s
TOC of the extracted CD
Track | Start | Length | Start sector | End sector
---------------------------------------------------------
1 | 0:00.00 | 2:31.55 | 0 | 11379
2 | 2:31.55 | 2:58.65 | 11380 | 24794
3 | 5:30.45 | 3:13.23 | 24795 | 39292
4 | 8:43.68 | 1:46.40 | 39293 | 47282
5 | 10:30.33 | 3:35.42 | 47283 | 63449
6 | 14:06.00 | 1:46.35 | 63450 | 71434
7 | 15:52.35 | 2:18.63 | 71435 | 81847
8 | 18:11.23 | 1:43.25 | 81848 | 89597
9 | 19:54.48 | 2:31.20 | 89598 | 100942
10 | 22:25.68 | 2:58.27 | 100943 | 114319
11 | 25:24.20 | 2:12.53 | 114320 | 124272
12 | 27:36.73 | 3:49.07 | 124273 | 141454
13 | 31:26.05 | 2:19.25 | 141455 | 151904
14 | 33:45.30 | 3:11.35 | 151905 | 166264
15 | 36:56.65 | 3:10.03 | 166265 | 180517
16 | 40:06.68 | 2:52.37 | 180518 | 193454
17 | 42:59.30 | 3:13.55 | 193455 | 207984
Track 1
Filename f:\EACrips\Bing Crosby - The Legendary Bing Crosby\01 - Bing Crosby - Lady Of Spain.wav
Pre-gap length 0:00:02.00
Peak level 73.8 %
Track quality 99.9 %
Test CRC 5436967E
Copy CRC 5436967E
Track not present in AccurateRip database
Copy OK
Track 2
Filename f:\EACrips\Bing Crosby - The Legendary Bing Crosby\02 - Bing Crosby - The Very Thought Of You.wav
Pre-gap length 0:00:03.96
Peak level 97.7 %
Track quality 100.0 %
Test CRC B23DEA15
Copy CRC B23DEA15
Track not present in AccurateRip database
Copy OK
Track 3
Filename f:\EACrips\Bing Crosby - The Legendary Bing Crosby\03 - Bing Crosby - June In Januray.wav
Pre-gap length 0:00:03.96
Peak level 75.7 %
Track quality 100.0 %
Test CRC 17AD5C52
Copy CRC 17AD5C52
Track not present in AccurateRip database
Copy OK
Track 4
Filename f:\EACrips\Bing Crosby - The Legendary Bing Crosby\04 - Bing Crosby - Zip-A-Dee-Doo-Dah.wav
Pre-gap length 0:00:03.97
Peak level 93.9 %
Track quality 100.0 %
Test CRC D8F0D8A7
Copy CRC D8F0D8A7
Track not present in AccurateRip database
Copy OK
Track 5
Filename f:\EACrips\Bing Crosby - The Legendary Bing Crosby\05 - Bing Crosby - P.S. I Love You.wav
Pre-gap length 0:00:03.97
Peak level 78.4 %
Track quality 100.0 %
Test CRC 9D5AC103
Copy CRC 9D5AC103
Track not present in AccurateRip database
Copy OK
Track 6
Filename f:\EACrips\Bing Crosby - The Legendary Bing Crosby\06 - Bing Crosby - If This Isn't Love.wav
Pre-gap length 0:00:03.96
Peak level 78.2 %
Track quality 100.0 %
Test CRC 7F7DF9F2
Copy CRC 7F7DF9F2
Track not present in AccurateRip database
Copy OK
Track 7
Filename f:\EACrips\Bing Crosby - The Legendary Bing Crosby\07 - Bing Crosby - Ole Buttermilk Sky.wav
Pre-gap length 0:00:03.96
Peak level 72.4 %
Track quality 100.0 %
Test CRC 9B527FB7
Copy CRC 9B527FB7
Track not present in AccurateRip database
Copy OK
Track 8
Filename f:\EACrips\Bing Crosby - The Legendary Bing Crosby\08 - Bing Crosby - Great Day.wav
Pre-gap length 0:00:03.97
Peak level 73.8 %
Track quality 100.0 %
Test CRC 42E7E194
Copy CRC 42E7E194
Track not present in AccurateRip database
Copy OK
Track 9
Filename f:\EACrips\Bing Crosby - The Legendary Bing Crosby\09 - Bing Crosby - I Got The Sun In The Morning.wav
Pre-gap length 0:00:03.98
Peak level 76.0 %
Track quality 100.0 %
Test CRC 4E35EBA1
Copy CRC 4E35EBA1
Track not present in AccurateRip database
Copy OK
Track 10
Filename f:\EACrips\Bing Crosby - The Legendary Bing Crosby\10 - Bing Crosby - May I .wav
Pre-gap length 0:00:03.97
Peak level 82.0 %
Track quality 100.0 %
Test CRC 0E6DD025
Copy CRC 0E6DD025
Track not present in AccurateRip database
Copy OK
Track 11
Filename f:\EACrips\Bing Crosby - The Legendary Bing Crosby\11 - Bing Crosby - It's A Good Day.wav
Pre-gap length 0:00:03.93
Peak level 74.4 %
Track quality 100.0 %
Test CRC 25D5D357
Copy CRC 25D5D357
Track not present in AccurateRip database
Copy OK
Track 12
Filename f:\EACrips\Bing Crosby - The Legendary Bing Crosby\12 - Bing Crosby - You Go To My Head.wav
Pre-gap length 0:00:03.97
Peak level 85.3 %
Track quality 100.0 %
Test CRC FCC6FA46
Copy CRC FCC6FA46
Track not present in AccurateRip database
Copy OK
Track 13
Filename f:\EACrips\Bing Crosby - The Legendary Bing Crosby\13 - Bing Crosby - The Old Lamplighter.wav
Pre-gap length 0:00:03.96
Peak level 96.5 %
Track quality 100.0 %
Test CRC F3A49565
Copy CRC F3A49565
Track not present in AccurateRip database
Copy OK
Track 14
Filename f:\EACrips\Bing Crosby - The Legendary Bing Crosby\14 - Bing Crosby - With Every Breath I Take.wav
Pre-gap length 0:00:03.96
Peak level 92.4 %
Track quality 100.0 %
Test CRC 6231344F
Copy CRC 6231344F
Track not present in AccurateRip database
Copy OK
Track 15
Filename f:\EACrips\Bing Crosby - The Legendary Bing Crosby\15 - Bing Crosby - Temptation.wav
Pre-gap length 0:00:03.93
Peak level 92.9 %
Track quality 100.0 %
Test CRC CAF50C21
Copy CRC CAF50C21
Track not present in AccurateRip database
Copy OK
Track 16
Filename f:\EACrips\Bing Crosby - The Legendary Bing Crosby\16 - Bing Crosby - You're Getting To Be A Habit With Me.wav
Pre-gap length 0:00:03.93
Peak level 72.1 %
Track quality 100.0 %
Test CRC CF8B7708
Copy CRC CF8B7708
Track not present in AccurateRip database
Copy OK
Track 17
Filename f:\EACrips\Bing Crosby - The Legendary Bing Crosby\17 - Bing Crosby - Someday, Sweetheart.wav
Pre-gap length 0:00:03.96
Peak level 89.2 %
Track quality 100.0 %
Test CRC 553D0E04
Copy CRC 553D0E04
Track not present in AccurateRip database
Copy OK
None of the tracks are present in the AccurateRip database
No errors occurred
End of status report
 
Содержание индексной карты (.CUE)
REM GENRE Blues
REM DATE 1999
REM DISCID EE0AD511
REM COMMENT "ExactAudioCopy v0.99pb4"
PERFORMER "Bing Crosby"
TITLE "The Legendary Bing Crosby"
FILE "01 - Lady Of Spain.wav" WAVE
TRACK 01 AUDIO
TITLE "Lady Of Spain"
PERFORMER "Bing Crosby"
INDEX 01 00:00:00
TRACK 02 AUDIO
TITLE "The Very Thought Of You"
PERFORMER "Bing Crosby"
INDEX 00 02:27:58
FILE "02 - The Very Thought Of You.wav" WAVE
INDEX 01 00:00:00
TRACK 03 AUDIO
TITLE "June In Januray"
PERFORMER "Bing Crosby"
INDEX 00 02:54:68
FILE "03 - June In Januray.wav" WAVE
INDEX 01 00:00:00
TRACK 04 AUDIO
TITLE "Zip-A-Dee-Doo-Dah"
PERFORMER "Bing Crosby"
INDEX 00 03:09:25
FILE "04 - Zip-A-Dee-Doo-Dah.wav" WAVE
INDEX 01 00:00:00
TRACK 05 AUDIO
TITLE "P.S. I Love You"
PERFORMER "Bing Crosby"
INDEX 00 01:42:42
FILE "05 - P.S. I Love You.wav" WAVE
INDEX 01 00:00:00
TRACK 06 AUDIO
TITLE "If This Isn't Love"
PERFORMER "Bing Crosby"
INDEX 00 03:31:45
FILE "06 - If This Isn't Love.wav" WAVE
INDEX 01 00:00:00
TRACK 07 AUDIO
TITLE "Ole Buttermilk Sky"
PERFORMER "Bing Crosby"
INDEX 00 01:42:38
FILE "07 - Ole Buttermilk Sky.wav" WAVE
INDEX 01 00:00:00
TRACK 08 AUDIO
TITLE "Great Day"
PERFORMER "Bing Crosby"
INDEX 00 02:14:65
FILE "08 - Great Day.wav" WAVE
INDEX 01 00:00:00
TRACK 09 AUDIO
TITLE "I Got The Sun In The Morning"
PERFORMER "Bing Crosby"
INDEX 00 01:39:26
FILE "09 - I Got The Sun In The Morning.wav" WAVE
INDEX 01 00:00:00
TRACK 10 AUDIO
TITLE "May I?"
PERFORMER "Bing Crosby"
INDEX 00 02:27:22
FILE "10 - May I .wav" WAVE
INDEX 01 00:00:00
TRACK 11 AUDIO
TITLE "It's A Good Day"
PERFORMER "Bing Crosby"
INDEX 00 02:54:32
FILE "11 - It's A Good Day.wav" WAVE
INDEX 01 00:00:00
TRACK 12 AUDIO
TITLE "You Go To My Head"
PERFORMER "Bing Crosby"
INDEX 00 02:08:55
FILE "12 - You Go To My Head.wav" WAVE
INDEX 01 00:00:00
TRACK 13 AUDIO
TITLE "The Old Lamplighter"
PERFORMER "Bing Crosby"
INDEX 00 03:45:10
FILE "13 - The Old Lamplighter.wav" WAVE
INDEX 01 00:00:00
TRACK 14 AUDIO
TITLE "With Every Breath I Take"
PERFORMER "Bing Crosby"
INDEX 00 02:15:28
FILE "14 - With Every Breath I Take.wav" WAVE
INDEX 01 00:00:00
TRACK 15 AUDIO
TITLE "Temptation"
PERFORMER "Bing Crosby"
INDEX 00 03:07:40
FILE "15 - Temptation.wav" WAVE
INDEX 01 00:00:00
TRACK 16 AUDIO
TITLE "You're Getting To Be A Habit With Me"
PERFORMER "Bing Crosby"
INDEX 00 03:06:08
FILE "16 - You're Getting To Be A Habit With Me.wav" WAVE
INDEX 01 00:00:00
TRACK 17 AUDIO
TITLE "Someday, Sweetheart"
PERFORMER "Bing Crosby"
INDEX 00 02:48:40
FILE "17 - Someday, Sweetheart.wav" WAVE
INDEX 01 00:00:00
 
DR Log
foobar2000 1.1.10 / Dynamic Range Meter 1.1.1
log date: 2018-06-19 12:16:21
--------------------------------------------------------------------------------
Analyzed: Bing Crosby / The Legendary Bing Crosby
--------------------------------------------------------------------------------
DR Peak RMS Duration Track
--------------------------------------------------------------------------------
DR7 -2.63 dB -12.62 dB 2:32 ?-Lady Of Spain
DR9 -0.20 dB -12.12 dB 2:59 ?-The Very Thought Of You
DR8 -2.41 dB -12.33 dB 3:13 ?-June In Januray
DR8 -0.55 dB -10.56 dB 1:47 ?-Zip-A-Dee-Doo-Dah
DR8 -2.11 dB -12.83 dB 3:36 ?-P.S. I Love You
DR8 -2.13 dB -12.21 dB 1:46 ?-If This Isn't Love
DR6 -2.80 dB -10.63 dB 2:19 ?-Ole Buttermilk Sky
DR6 -2.63 dB -10.80 dB 1:43 ?-Great Day
DR7 -2.38 dB -11.23 dB 2:31 ?-I Got The Sun In The Morning
DR8 -1.71 dB -11.44 dB 2:58 ?-May I?
DR8 -2.56 dB -12.24 dB 2:13 ?-It's A Good Day
DR7 -1.38 dB -11.99 dB 3:49 ?-You Go To My Head
DR7 -0.30 dB -10.00 dB 2:19 ?-The Old Lamplighter
DR9 -0.69 dB -12.14 dB 3:11 ?-With Every Breath I Take
DR8 -0.64 dB -12.11 dB 3:10 ?-Temptation
DR8 -2.84 dB -13.31 dB 2:52 ?-You're Getting To Be A Habit With Me
DR8 -0.99 dB -11.51 dB 3:14 ?-Someday, Sweetheart
--------------------------------------------------------------------------------
Number of tracks: 17
Official DR value: DR8
Samplerate: 44100 Hz
Channels: 2
Bits per sample: 16
Bitrate: 695 kbps
Codec: FLAC
================================================================================
 
Об исполнителе (группе)

Раздаю до первых 5-ти скачавших, на раздачи не возвращаюсь...
Скачивание доступно после регистрации!!
Приватный:
Нет (DHT включён)
Размер:
190.59 Мб (199,851,596 байт) » файлов: 24
Участники:
0 раздают, 0 качают (0 участников всего)
Внешние участники:
--- [ Обновить ]
07:35
10
Нет комментариев. Ваш будет первым!