Поиск

(Pop, Vocal Jazz) [CD] Bing Crosby - Essential Early Recordings - 2010 (2CD), FLAC (tracks+.cue), lossless

(Pop, Vocal Jazz) [CD] Bing Crosby - Essential Early Recordings - 2010 (2CD), FLAC (tracks+.cue), lossless
Треклист:
Bing Crosby / Essential Early Recordings
Жанр: Pop, Vocal Jazz
Носитель: CD
Страна-производитель диска (релиза): EU
Год издания: 2010
Издатель (лейбл): Primo
Номер по каталогу: PRMCD6110
Страна исполнителя (группы): USA
Аудиокодек: FLAC (*.flac)
Тип рипа: tracks+.cue
Битрейт аудио: lossless
Продолжительность: artmuss
Источник (релизер): 2:03:00
Наличие сканов в содержимом раздачи: Front, Back
 
CD1
01. Side by Side (3:05)
02. Night and Day (3:13)
03. Just One More Chance (3:16)
04. Sweet Georgia Brown (3:02)
05. Red Sails In the Sunset (3:12)
06. Don't Fence Me In (3:04)
07. Three Little Words (3:04)
08. I Found a Million Dollar Baby (In a Five and Ten Cent Store) (3:02)
09. Please (3:02)
10. Pennies From Heaven (3:08)
11. Sweet Leilani (3:13)
12. Muddy Water (3:11)
13. Trade Winds (3:14)
14. I'm Thru With Love (3:15)
15. Brother, Can You Spare a Dime? (3:13)
16. Too Marvellous For Words (3:02)
17. Along the Navajo Trail (2:45)
18. Mississippi Mud (3:12)
19. I Surrender, Dear (3:44)
20. You're Getting to Be a Habit With Me (2:46)
 
Лог создания рипа
Exact Audio Copy V0.99 prebeta 5 from 4. May 2009
EAC extraction logfile from 15. July 2011, 21:33
Bing Crosby / Essential Early Recordings (Disc 1)
Used drive : SAMSUNG CD-R/RW SW-252B Adapter: 3 ID: 1
Read mode : Secure
Utilize accurate stream : Yes
Defeat audio cache : Yes
Make use of C2 pointers : No
Read offset correction : 97
Overread into Lead-In and Lead-Out : No
Fill up missing offset samples with silence : Yes
Delete leading and trailing silent blocks : No
Null samples used in CRC calculations : Yes
Used interface : Installed external ASPI interface
Gap handling : Appended to previous track
Used output format : User Defined Encoder
Selected bitrate : 1024 kBit/s
Quality : High
Add ID3 tag : No
Command line compressor : C:\Program Files\Exact Audio Copy\Flac\flac.exe
Additional command line options : -8 -V -T "ARTIST=%a" -T "TITLE=%t" -T "ALBUM=%g" -T "DATE=%y" -T "TRACKNUMBER=%n" -T "GENRE=%m" -T "COMMENT=EAC FLAC -8" %s
TOC of the extracted CD
Track | Start | Length | Start sector | End sector
---------------------------------------------------------
1 | 0:00.00 | 3:05.04 | 0 | 13878
2 | 3:05.04 | 3:13.53 | 13879 | 28406
3 | 6:18.57 | 3:16.32 | 28407 | 43138
4 | 9:35.14 | 3:02.01 | 43139 | 56789
5 | 12:37.15 | 3:12.41 | 56790 | 71230
6 | 15:49.56 | 3:04.43 | 71231 | 85073
7 | 18:54.24 | 3:04.19 | 85074 | 98892
8 | 21:58.43 | 3:02.28 | 98893 | 112570
9 | 25:00.71 | 3:02.52 | 112571 | 126272
10 | 28:03.48 | 3:08.28 | 126273 | 140400
11 | 31:12.01 | 3:13.37 | 140401 | 154912
12 | 34:25.38 | 3:11.59 | 154913 | 169296
13 | 37:37.22 | 3:14.71 | 169297 | 183917
14 | 40:52.18 | 3:15.31 | 183918 | 198573
15 | 44:07.49 | 3:13.41 | 198574 | 213089
16 | 47:21.15 | 3:02.41 | 213090 | 226780
17 | 50:23.56 | 2:45.20 | 226781 | 239175
18 | 53:09.01 | 3:12.37 | 239176 | 253612
19 | 56:21.38 | 3:44.20 | 253613 | 270432
20 | 60:05.58 | 2:46.68 | 270433 | 282950
Track 1
Filename D:\Bing Crosby - Essential Early Recordings\CD 1\01 - Side By Side.wav
Pre-gap length 0:00:02.00
Peak level 94.3 %
Track quality 100.0 %
Test CRC 44B8ABD0
Copy CRC 44B8ABD0
Track not present in AccurateRip database
Copy OK
Track 2
Filename D:\Bing Crosby - Essential Early Recordings\CD 1\02 - Night And Day.wav
Pre-gap length 0:00:02.00
Peak level 94.2 %
Track quality 100.0 %
Test CRC C5130002
Copy CRC C5130002
Track not present in AccurateRip database
Copy OK
Track 3
Filename D:\Bing Crosby - Essential Early Recordings\CD 1\03 - Just One More Chance.wav
Pre-gap length 0:00:02.00
Peak level 94.3 %
Track quality 100.0 %
Test CRC 5646F05D
Copy CRC 5646F05D
Track not present in AccurateRip database
Copy OK
Track 4
Filename D:\Bing Crosby - Essential Early Recordings\CD 1\04 - Sweet Georgia Brown.wav
Pre-gap length 0:00:02.00
Peak level 94.3 %
Track quality 100.0 %
Test CRC 5AE092CA
Copy CRC 5AE092CA
Track not present in AccurateRip database
Copy OK
Track 5
Filename D:\Bing Crosby - Essential Early Recordings\CD 1\05 - Red Sails In The Sunset.wav
Pre-gap length 0:00:02.00
Peak level 74.9 %
Track quality 100.0 %
Test CRC 2771E839
Copy CRC 2771E839
Track not present in AccurateRip database
Copy OK
Track 6
Filename D:\Bing Crosby - Essential Early Recordings\CD 1\06 - Don't Fence Me In.wav
Pre-gap length 0:00:02.00
Peak level 94.3 %
Track quality 100.0 %
Test CRC 7859DC30
Copy CRC 7859DC30
Track not present in AccurateRip database
Copy OK
Track 7
Filename D:\Bing Crosby - Essential Early Recordings\CD 1\07 - Three Little Words.wav
Pre-gap length 0:00:02.00
Peak level 87.1 %
Track quality 100.0 %
Test CRC D5B4A32C
Copy CRC D5B4A32C
Track not present in AccurateRip database
Copy OK
Track 8
Filename D:\Bing Crosby - Essential Early Recordings\CD 1\08 - I Found A Million Dollar Baby (In A Five And Ten Cent Store).wav
Pre-gap length 0:00:02.00
Peak level 73.2 %
Track quality 100.0 %
Test CRC 13381E5F
Copy CRC 13381E5F
Track not present in AccurateRip database
Copy OK
Track 9
Filename D:\Bing Crosby - Essential Early Recordings\CD 1\09 - Please.wav
Pre-gap length 0:00:02.00
Peak level 94.3 %
Track quality 100.0 %
Test CRC 9F2FC394
Copy CRC 9F2FC394
Track not present in AccurateRip database
Copy OK
Track 10
Filename D:\Bing Crosby - Essential Early Recordings\CD 1\10 - Pennies From Heaven.wav
Pre-gap length 0:00:02.00
Peak level 87.9 %
Track quality 100.0 %
Test CRC 6A31BB6E
Copy CRC 6A31BB6E
Track not present in AccurateRip database
Copy OK
Track 11
Filename D:\Bing Crosby - Essential Early Recordings\CD 1\11 - Sweet Leilani.wav
Pre-gap length 0:00:02.00
Peak level 94.2 %
Track quality 100.0 %
Test CRC F386E345
Copy CRC F386E345
Track not present in AccurateRip database
Copy OK
Track 12
Filename D:\Bing Crosby - Essential Early Recordings\CD 1\12 - Muddy Water.wav
Pre-gap length 0:00:02.00
Peak level 94.2 %
Track quality 100.0 %
Test CRC A3023093
Copy CRC A3023093
Track not present in AccurateRip database
Copy OK
Track 13
Filename D:\Bing Crosby - Essential Early Recordings\CD 1\13 - Trade Winds.wav
Pre-gap length 0:00:02.00
Peak level 94.2 %
Track quality 99.9 %
Test CRC 344556F7
Copy CRC 344556F7
Track not present in AccurateRip database
Copy OK
Track 14
Filename D:\Bing Crosby - Essential Early Recordings\CD 1\14 - I'm Thru With Love.wav
Pre-gap length 0:00:02.00
Peak level 94.3 %
Track quality 100.0 %
Test CRC B5B1507D
Copy CRC B5B1507D
Track not present in AccurateRip database
Copy OK
Track 15
Filename D:\Bing Crosby - Essential Early Recordings\CD 1\15 - Brother, Can You Spare A Dime .wav
Pre-gap length 0:00:02.00
Peak level 94.3 %
Track quality 100.0 %
Test CRC 1BAC097B
Copy CRC 1BAC097B
Track not present in AccurateRip database
Copy OK
Track 16
Filename D:\Bing Crosby - Essential Early Recordings\CD 1\16 - Too Marvellous For Words.wav
Pre-gap length 0:00:02.00
Peak level 94.3 %
Track quality 100.0 %
Test CRC 605AE952
Copy CRC 605AE952
Track not present in AccurateRip database
Copy OK
Track 17
Filename D:\Bing Crosby - Essential Early Recordings\CD 1\17 - Along The Navajo Trail.wav
Pre-gap length 0:00:02.00
Peak level 66.7 %
Track quality 100.0 %
Test CRC 40696DB0
Copy CRC 40696DB0
Track not present in AccurateRip database
Copy OK
Track 18
Filename D:\Bing Crosby - Essential Early Recordings\CD 1\18 - Mississippi Mud.wav
Pre-gap length 0:00:02.00
Peak level 85.3 %
Track quality 100.0 %
Test CRC 88C3CED1
Copy CRC 88C3CED1
Track not present in AccurateRip database
Copy OK
Track 19
Filename D:\Bing Crosby - Essential Early Recordings\CD 1\19 - I Surrender, Dear.wav
Pre-gap length 0:00:02.00
Peak level 94.3 %
Track quality 100.0 %
Test CRC 1ABCE6CD
Copy CRC 1ABCE6CD
Track not present in AccurateRip database
Copy OK
Track 20
Filename D:\Bing Crosby - Essential Early Recordings\CD 1\20 - You're Getting To Be A Habit With Me.wav
Pre-gap length 0:00:02.00
Peak level 94.2 %
Track quality 100.0 %
Test CRC 5526BC08
Copy CRC 5526BC08
Track not present in AccurateRip database
Copy OK
None of the tracks are present in the AccurateRip database
No errors occurred
End of status report
 
Содержание индексной карты (.CUE)
REM GENRE Pop
REM DATE 2011
REM DISCID 250EBC14
REM COMMENT "ExactAudioCopy v0.99pb5"
FILE "01 - Side By Side.wav" WAVE
TRACK 01 AUDIO
INDEX 01 00:00:00
TRACK 02 AUDIO
INDEX 00 03:03:04
FILE "02 - Night And Day.wav" WAVE
INDEX 01 00:00:00
TRACK 03 AUDIO
INDEX 00 03:11:53
FILE "03 - Just One More Chance.wav" WAVE
INDEX 01 00:00:00
TRACK 04 AUDIO
INDEX 00 03:14:32
FILE "04 - Sweet Georgia Brown.wav" WAVE
INDEX 01 00:00:00
TRACK 05 AUDIO
INDEX 00 03:00:01
FILE "05 - Red Sails In The Sunset.wav" WAVE
INDEX 01 00:00:00
TRACK 06 AUDIO
INDEX 00 03:10:41
FILE "06 - Don't Fence Me In.wav" WAVE
INDEX 01 00:00:00
TRACK 07 AUDIO
INDEX 00 03:02:43
FILE "07 - Three Little Words.wav" WAVE
INDEX 01 00:00:00
TRACK 08 AUDIO
INDEX 00 03:02:19
FILE "08 - I Found A Million Dollar Baby (In A Five And Ten Cent Store).wav" WAVE
INDEX 01 00:00:00
TRACK 09 AUDIO
INDEX 00 03:00:28
FILE "09 - Please.wav" WAVE
INDEX 01 00:00:00
TRACK 10 AUDIO
INDEX 00 03:00:52
FILE "10 - Pennies From Heaven.wav" WAVE
INDEX 01 00:00:00
TRACK 11 AUDIO
INDEX 00 03:06:28
FILE "11 - Sweet Leilani.wav" WAVE
INDEX 01 00:00:00
TRACK 12 AUDIO
INDEX 00 03:11:37
FILE "12 - Muddy Water.wav" WAVE
INDEX 01 00:00:00
TRACK 13 AUDIO
INDEX 00 03:09:59
FILE "13 - Trade Winds.wav" WAVE
INDEX 01 00:00:00
TRACK 14 AUDIO
INDEX 00 03:12:71
FILE "14 - I'm Thru With Love.wav" WAVE
INDEX 01 00:00:00
TRACK 15 AUDIO
INDEX 00 03:13:31
FILE "15 - Brother, Can You Spare A Dime .wav" WAVE
INDEX 01 00:00:00
TRACK 16 AUDIO
INDEX 00 03:11:41
FILE "16 - Too Marvellous For Words.wav" WAVE
INDEX 01 00:00:00
TRACK 17 AUDIO
INDEX 00 03:00:41
FILE "17 - Along The Navajo Trail.wav" WAVE
INDEX 01 00:00:00
TRACK 18 AUDIO
INDEX 00 02:43:20
FILE "18 - Mississippi Mud.wav" WAVE
INDEX 01 00:00:00
TRACK 19 AUDIO
INDEX 00 03:10:37
FILE "19 - I Surrender, Dear.wav" WAVE
INDEX 01 00:00:00
TRACK 20 AUDIO
INDEX 00 03:42:20
FILE "20 - You're Getting To Be A Habit With Me.wav" WAVE
INDEX 01 00:00:00
 
DR Log
foobar2000 1.1.10 / Dynamic Range Meter 1.1.1
log date: 2018-06-19 12:11:47
--------------------------------------------------------------------------------
Analyzed: Bing Crosby / Essential Early Recordings (Disc 1)
--------------------------------------------------------------------------------
DR Peak RMS Duration Track
--------------------------------------------------------------------------------
DR13 -0.51 dB -15.00 dB 3:05 ?-Side By Side
DR14 -0.51 dB -17.04 dB 3:14 ?-Night And Day
DR11 -0.51 dB -13.95 dB 3:16 ?-Just One More Chance
DR14 -0.51 dB -16.87 dB 3:02 ?-Sweet Georgia Brown
DR12 -2.51 dB -16.94 dB 3:13 ?-Red Sails In The Sunset
DR14 -0.51 dB -17.19 dB 3:05 ?-Don't Fence Me In
DR12 -1.19 dB -15.72 dB 3:04 ?-Three Little Words
DR10 -2.70 dB -14.91 dB 3:02 ?-I Found A Million Dollar Baby (In A Five And Ten Cent Store)
DR11 -0.51 dB -14.56 dB 3:03 ?-Please
DR13 -1.11 dB -17.48 dB 3:08 ?-Pennies From Heaven
DR12 -0.51 dB -14.57 dB 3:13 ?-Sweet Leilani
DR13 -0.51 dB -15.98 dB 3:12 ?-Muddy Water
DR13 -0.51 dB -16.92 dB 3:15 ?-Trade Winds
DR13 -0.51 dB -16.05 dB 3:15 ?-I'm Thru With Love
DR12 -0.51 dB -15.23 dB 3:14 ?-Brother, Can You Spare A Dime?
DR12 -0.51 dB -14.69 dB 3:03 ?-Too Marvellous For Words
DR12 -3.51 dB -18.87 dB 2:45 ?-Along The Navajo Trail
DR13 -1.38 dB -16.51 dB 3:12 ?-Mississippi Mud
DR12 -0.51 dB -17.05 dB 3:44 ?-I Surrender, Dear
DR13 -0.51 dB -16.24 dB 2:47 ?-You're Getting To Be A Habit With Me
--------------------------------------------------------------------------------
Number of tracks: 20
Official DR value: DR12
Samplerate: 44100 Hz
Channels: 2
Bits per sample: 16
Bitrate: 223 kbps
Codec: FLAC
================================================================================
 
CD2
01. Sierra Sue (3:02)
02. Love in Bloom (3:05)
03. Swinging on a Star (2:30)
04. Sam's Song (The Happy Tune) (2:54)
05. Silent Night, Holy Night (3:01)
06. Alexander's Ragtime Band (3:00)
07. Just a Gigolo (3:22)
08. The Way You Look Tonight (2:34)
09. White Christmas (3:04)
10. You Are My Sunshine (2:34)
11. I've Got the World On a String (3:23)
12. Out of Nowhere (3:10)
13. Bob White (Watcha Gonna Swing Tonight?) (2:37)
14. It's Easy to Remember (3:11)
15. June in January (3:14)
16. You Brought a New Kind of Love to Me (3:15)
17. Wrap Your Troubles in Dreams (and Dream Your Troubles Away) (3:25)
18. Dinah (2:55)
19. Soon (3:04)
20. Sunday, Monday or Always (2:37)
 
Лог создания рипа
Exact Audio Copy V0.99 prebeta 5 from 4. May 2009
EAC extraction logfile from 15. July 2011, 22:53
Bing Crosby / Essential Early Recordings (Disc 2)
Used drive : SAMSUNG CD-R/RW SW-252B Adapter: 3 ID: 1
Read mode : Secure
Utilize accurate stream : Yes
Defeat audio cache : Yes
Make use of C2 pointers : No
Read offset correction : 97
Overread into Lead-In and Lead-Out : No
Fill up missing offset samples with silence : Yes
Delete leading and trailing silent blocks : No
Null samples used in CRC calculations : Yes
Used interface : Installed external ASPI interface
Gap handling : Appended to previous track
Used output format : User Defined Encoder
Selected bitrate : 1024 kBit/s
Quality : High
Add ID3 tag : No
Command line compressor : C:\Program Files\Exact Audio Copy\Flac\flac.exe
Additional command line options : -8 -V -T "ARTIST=%a" -T "TITLE=%t" -T "ALBUM=%g" -T "DATE=%y" -T "TRACKNUMBER=%n" -T "GENRE=%m" -T "COMMENT=EAC FLAC -8" %s
TOC of the extracted CD
Track | Start | Length | Start sector | End sector
---------------------------------------------------------
1 | 0:00.00 | 3:02.25 | 0 | 13674
2 | 3:02.25 | 3:05.68 | 13675 | 27617
3 | 6:08.18 | 2:30.61 | 27618 | 38928
4 | 8:39.04 | 2:54.06 | 38929 | 51984
5 | 11:33.10 | 3:01.59 | 51985 | 65618
6 | 14:34.69 | 3:00.29 | 65619 | 79147
7 | 17:35.23 | 3:22.54 | 79148 | 94351
8 | 20:58.02 | 2:34.49 | 94352 | 105950
9 | 23:32.51 | 3:04.44 | 105951 | 119794
10 | 26:37.20 | 2:34.23 | 119795 | 131367
11 | 29:11.43 | 3:23.20 | 131368 | 146612
12 | 32:34.63 | 3:10.21 | 146613 | 160883
13 | 35:45.09 | 2:37.34 | 160884 | 172692
14 | 38:22.43 | 3:11.51 | 172693 | 187068
15 | 41:34.19 | 3:14.73 | 187069 | 201691
16 | 44:49.17 | 3:15.35 | 201692 | 216351
17 | 48:04.52 | 3:25.07 | 216352 | 231733
18 | 51:29.59 | 2:55.65 | 231734 | 244923
19 | 54:25.49 | 3:04.19 | 244924 | 258742
20 | 57:29.68 | 2:37.59 | 258743 | 270576
Track 1
Filename D:\Bing Crosby - Essential Early Recordings\CD 2\01 - Sierra Sue.wav
Pre-gap length 0:00:02.00
Peak level 84.0 %
Track quality 100.0 %
Test CRC D86EC6A3
Copy CRC D86EC6A3
Track not present in AccurateRip database
Copy OK
Track 2
Filename D:\Bing Crosby - Essential Early Recordings\CD 2\02 - Love In Bloom.wav
Pre-gap length 0:00:02.00
Peak level 74.8 %
Track quality 100.0 %
Test CRC C2228903
Copy CRC C2228903
Track not present in AccurateRip database
Copy OK
Track 3
Filename D:\Bing Crosby - Essential Early Recordings\CD 2\03 - Swinging On A Star.wav
Pre-gap length 0:00:02.00
Peak level 84.3 %
Track quality 100.0 %
Test CRC 4789BBC9
Copy CRC 4789BBC9
Track not present in AccurateRip database
Copy OK
Track 4
Filename D:\Bing Crosby - Essential Early Recordings\CD 2\04 - Sam's Song (The Happy Tune).wav
Pre-gap length 0:00:02.00
Peak level 84.0 %
Track quality 100.0 %
Test CRC BD2BE176
Copy CRC BD2BE176
Track not present in AccurateRip database
Copy OK
Track 5
Filename D:\Bing Crosby - Essential Early Recordings\CD 2\05 - Silent Night, Holy Night.wav
Pre-gap length 0:00:02.00
Peak level 94.3 %
Track quality 100.0 %
Test CRC 5CE0B74D
Copy CRC 5CE0B74D
Track not present in AccurateRip database
Copy OK
Track 6
Filename D:\Bing Crosby - Essential Early Recordings\CD 2\06 - Alexander's Ragtime Band.wav
Pre-gap length 0:00:02.00
Peak level 94.3 %
Track quality 100.0 %
Test CRC 19D7DD50
Copy CRC 19D7DD50
Track not present in AccurateRip database
Copy OK
Track 7
Filename D:\Bing Crosby - Essential Early Recordings\CD 2\07 - Just A Gigolo.wav
Pre-gap length 0:00:02.00
Peak level 94.3 %
Track quality 100.0 %
Test CRC 07A95BA8
Copy CRC 07A95BA8
Track not present in AccurateRip database
Copy OK
Track 8
Filename D:\Bing Crosby - Essential Early Recordings\CD 2\08 - The Way You Look Tonight.wav
Pre-gap length 0:00:02.00
Peak level 94.2 %
Track quality 100.0 %
Test CRC 955AE3BA
Copy CRC 955AE3BA
Track not present in AccurateRip database
Copy OK
Track 9
Filename D:\Bing Crosby - Essential Early Recordings\CD 2\09 - White Christmas.wav
Pre-gap length 0:00:02.00
Peak level 69.4 %
Track quality 100.0 %
Test CRC D60538C7
Copy CRC D60538C7
Track not present in AccurateRip database
Copy OK
Track 10
Filename D:\Bing Crosby - Essential Early Recordings\CD 2\10 - You Are My Sunshine.wav
Pre-gap length 0:00:02.00
Peak level 74.9 %
Track quality 100.0 %
Test CRC CF4B06EA
Copy CRC CF4B06EA
Track not present in AccurateRip database
Copy OK
Track 11
Filename D:\Bing Crosby - Essential Early Recordings\CD 2\11 - I've Got The World On A String.wav
Pre-gap length 0:00:02.00
Peak level 94.2 %
Track quality 100.0 %
Test CRC CBAC9032
Copy CRC CBAC9032
Track not present in AccurateRip database
Copy OK
Track 12
Filename D:\Bing Crosby - Essential Early Recordings\CD 2\12 - Out Of Nowhere.wav
Pre-gap length 0:00:02.00
Peak level 94.2 %
Track quality 99.9 %
Test CRC C3B95CF1
Copy CRC C3B95CF1
Track not present in AccurateRip database
Copy OK
Track 13
Filename D:\Bing Crosby - Essential Early Recordings\CD 2\13 - Bob White (Watcha Gonna Swing Tonight ).wav
Pre-gap length 0:00:02.00
Peak level 83.9 %
Track quality 100.0 %
Test CRC BC7CBB1F
Copy CRC BC7CBB1F
Track not present in AccurateRip database
Copy OK
Track 14
Filename D:\Bing Crosby - Essential Early Recordings\CD 2\14 - It's Easy To Remember.wav
Pre-gap length 0:00:02.00
Peak level 94.1 %
Track quality 100.0 %
Test CRC 3DC4B7BC
Copy CRC 3DC4B7BC
Track not present in AccurateRip database
Copy OK
Track 15
Filename D:\Bing Crosby - Essential Early Recordings\CD 2\15 - June In January.wav
Pre-gap length 0:00:02.00
Peak level 94.3 %
Track quality 100.0 %
Test CRC 184D73A0
Copy CRC 184D73A0
Track not present in AccurateRip database
Copy OK
Track 16
Filename D:\Bing Crosby - Essential Early Recordings\CD 2\16 - You Brought A New Kind Of Love To Me.wav
Pre-gap length 0:00:02.00
Peak level 94.3 %
Track quality 100.0 %
Test CRC 0C17D1F8
Copy CRC 0C17D1F8
Track not present in AccurateRip database
Copy OK
Track 17
Filename D:\Bing Crosby - Essential Early Recordings\CD 2\17 - Wrap Your Troubles In Dreams (And Dream Your Troubles Away).wav
Pre-gap length 0:00:02.00
Peak level 94.3 %
Track quality 100.0 %
Test CRC ABA7D9FA
Copy CRC ABA7D9FA
Track not present in AccurateRip database
Copy OK
Track 18
Filename D:\Bing Crosby - Essential Early Recordings\CD 2\18 - Dinah.wav
Pre-gap length 0:00:02.00
Peak level 93.1 %
Track quality 100.0 %
Test CRC 26F87650
Copy CRC 26F87650
Track not present in AccurateRip database
Copy OK
Track 19
Filename D:\Bing Crosby - Essential Early Recordings\CD 2\19 - Soon.wav
Pre-gap length 0:00:02.00
Peak level 94.2 %
Track quality 100.0 %
Test CRC C1E8F171
Copy CRC C1E8F171
Track not present in AccurateRip database
Copy OK
Track 20
Filename D:\Bing Crosby - Essential Early Recordings\CD 2\20 - Sunday, Monday Or Always.wav
Pre-gap length 0:00:02.00
Peak level 94.2 %
Track quality 100.0 %
Test CRC F0E0D989
Copy CRC F0E0D989
Track not present in AccurateRip database
Copy OK
None of the tracks are present in the AccurateRip database
No errors occurred
End of status report
 
Содержание индексной карты (.CUE)
REM GENRE Pop
REM DATE 2011
REM DISCID 2A0E1714
REM COMMENT "ExactAudioCopy v0.99pb5"
FILE "01 - Sierra Sue.wav" WAVE
TRACK 01 AUDIO
INDEX 01 00:00:00
TRACK 02 AUDIO
INDEX 00 03:00:25
FILE "02 - Love In Bloom.wav" WAVE
INDEX 01 00:00:00
TRACK 03 AUDIO
INDEX 00 03:03:68
FILE "03 - Swinging On A Star.wav" WAVE
INDEX 01 00:00:00
TRACK 04 AUDIO
INDEX 00 02:28:61
FILE "04 - Sam's Song (The Happy Tune).wav" WAVE
INDEX 01 00:00:00
TRACK 05 AUDIO
INDEX 00 02:52:06
FILE "05 - Silent Night, Holy Night.wav" WAVE
INDEX 01 00:00:00
TRACK 06 AUDIO
INDEX 00 02:59:59
FILE "06 - Alexander's Ragtime Band.wav" WAVE
INDEX 01 00:00:00
TRACK 07 AUDIO
INDEX 00 02:58:29
FILE "07 - Just A Gigolo.wav" WAVE
INDEX 01 00:00:00
TRACK 08 AUDIO
INDEX 00 03:20:54
FILE "08 - The Way You Look Tonight.wav" WAVE
INDEX 01 00:00:00
TRACK 09 AUDIO
INDEX 00 02:32:49
FILE "09 - White Christmas.wav" WAVE
INDEX 01 00:00:00
TRACK 10 AUDIO
INDEX 00 03:02:44
FILE "10 - You Are My Sunshine.wav" WAVE
INDEX 01 00:00:00
TRACK 11 AUDIO
INDEX 00 02:32:23
FILE "11 - I've Got The World On A String.wav" WAVE
INDEX 01 00:00:00
TRACK 12 AUDIO
INDEX 00 03:21:20
FILE "12 - Out Of Nowhere.wav" WAVE
INDEX 01 00:00:00
TRACK 13 AUDIO
INDEX 00 03:08:21
FILE "13 - Bob White (Watcha Gonna Swing Tonight ).wav" WAVE
INDEX 01 00:00:00
TRACK 14 AUDIO
INDEX 00 02:35:34
FILE "14 - It's Easy To Remember.wav" WAVE
INDEX 01 00:00:00
TRACK 15 AUDIO
INDEX 00 03:09:51
FILE "15 - June In January.wav" WAVE
INDEX 01 00:00:00
TRACK 16 AUDIO
INDEX 00 03:12:73
FILE "16 - You Brought A New Kind Of Love To Me.wav" WAVE
INDEX 01 00:00:00
TRACK 17 AUDIO
INDEX 00 03:13:35
FILE "17 - Wrap Your Troubles In Dreams (And Dream Your Troubles Away).wav" WAVE
INDEX 01 00:00:00
TRACK 18 AUDIO
INDEX 00 03:23:07
FILE "18 - Dinah.wav" WAVE
INDEX 01 00:00:00
TRACK 19 AUDIO
INDEX 00 02:53:65
FILE "19 - Soon.wav" WAVE
INDEX 01 00:00:00
TRACK 20 AUDIO
INDEX 00 03:02:19
FILE "20 - Sunday, Monday Or Always.wav" WAVE
INDEX 01 00:00:00
 
DR Log
foobar2000 1.1.10 / Dynamic Range Meter 1.1.1
log date: 2018-06-19 12:13:06
--------------------------------------------------------------------------------
Analyzed: Bing Crosby / Essential Early Recordings (Disc 2)
--------------------------------------------------------------------------------
DR Peak RMS Duration Track
--------------------------------------------------------------------------------
DR12 -1.51 dB -17.43 dB 3:02 ?-Sierra Sue
DR11 -2.51 dB -16.09 dB 3:06 ?-Love In Bloom
DR13 -1.47 dB -16.02 dB 2:31 ?-Swinging On A Star
DR13 -1.51 dB -16.78 dB 2:54 ?-Sam's Song (The Happy Tune)
DR12 -0.51 dB -17.37 dB 3:02 ?-Silent Night, Holy Night
DR13 -0.51 dB -16.54 dB 3:00 ?-Alexander's Ragtime Band
DR13 -0.51 dB -17.53 dB 3:23 ?-Just A Gigolo
DR9 -0.51 dB -12.62 dB 2:35 ?-The Way You Look Tonight
DR10 -3.17 dB -15.86 dB 3:05 ?-White Christmas
DR14 -2.51 dB -18.97 dB 2:34 ?-You Are My Sunshine
DR15 -0.51 dB -18.73 dB 3:23 ?-I've Got The World On A String
DR11 -0.51 dB -14.75 dB 3:10 ?-Out Of Nowhere
DR13 -1.51 dB -17.34 dB 2:37 ?-Bob White (Watcha Gonna Swing Tonight?)
DR12 -0.53 dB -17.06 dB 3:12 ?-It's Easy To Remember
DR13 -0.51 dB -16.57 dB 3:15 ?-June In January
DR12 -0.51 dB -14.13 dB 3:15 ?-You Brought A New Kind Of Love To Me
DR14 -0.51 dB -17.06 dB 3:25 ?-Wrap Your Troubles In Dreams (And Dream Your Troubles Away)
DR13 -0.62 dB -16.01 dB 2:56 ?-Dinah
DR15 -0.51 dB -18.76 dB 3:04 ?-Soon
DR12 -0.51 dB -15.31 dB 2:38 ?-Sunday, Monday Or Always
--------------------------------------------------------------------------------
Number of tracks: 20
Official DR value: DR13
Samplerate: 44100 Hz
Channels: 2
Bits per sample: 16
Bitrate: 260 kbps
Codec: FLAC
================================================================================
 
Об исполнителе (группе)
2011 two CD collection from the crooning legend. Not only one of the most successful performers in the history of recorded music, Bing Crosby was an all round entertainer who provided the blueprint for stars such as Frank Sinatra and Elvis Presley who followed in his footsteps. This collection serves up the best of an artist who ruled the Pop charts and radio waves for decades. Primo.
https://en.wikipedia.org/wiki/Bing_Crosby
https://ru.wikipedia.org/wiki/Кросби,_Бинг

Раздаю до первых 5-ти скачавших, на раздачи не возвращаюсь...
Скачивание доступно после регистрации!!
Приватный:
Нет (DHT включён)
Размер:
219.66 Мб (230,334,408 байт) » файлов: 52
Участники:
0 раздают, 0 качают (0 участников всего)
Внешние участники:
--- [ Обновить ]
07:36
6
Нет комментариев. Ваш будет первым!