Поиск

(Contemporary Jazz, Free Improvisation, Vocal) [CD] Francois Moutin & Kavita Shah Duo - Interplay - 2018, FLAC (tracks+.cue), lossless

(Contemporary Jazz, Free Improvisation, Vocal) [CD] Francois Moutin & Kavita Shah Duo - Interplay - 2018, FLAC (tracks+.cue), lossless
Треклист:
Francois Moutin & Kavita Shah Duo / Interplay
Жанр: Contemporary Jazz, Free Improvisation, Vocal
Носитель: CD
Год издания: 2018
Издатель (лейбл): Dot Time Records
Номер по каталогу: DT9077
Страна исполнителя (группы): France
Аудиокодек: FLAC (*.flac)
Тип рипа: tracks+.cue
Битрейт аудио: lossless
Продолжительность: 00:53:40
Источник (релизер): Apollo
Наличие сканов в содержимом раздачи: да
Треклист:
01. You Go to My Head (05:47)
02. La Vie En Rose (03:45)
03. Coming Yesterday (feat. Martial Solal) (06:47)
04. Bliss (03:31)
05. Falling in Love (feat. Sheila Jordan) (06:23)
06. Aigue Marine (feat. Martial Solal) (03:21)
07. Blah Blah (04:48)
08. Utopian Vision (03:37)
09. Interplay (06:04)
10. The Provider's Gone (03:04)
11. Peace (feat. Sheila Jordan) (06:00)
 
Лог создания рипа
Exact Audio Copy V1.3 from 2. September 2016
EAC extraction logfile from 24. June 2018, 12:40
Francois Moutin & Kavita Shah Duo / Interplay
Used drive : ATAPI iHBS112 2 Adapter: 1 ID: 2
Read mode : Secure
Utilize accurate stream : Yes
Defeat audio cache : Yes
Make use of C2 pointers : No
Read offset correction : 6
Overread into Lead-In and Lead-Out : No
Fill up missing offset samples with silence : Yes
Delete leading and trailing silent blocks : No
Null samples used in CRC calculations : Yes
Used interface : Native Win32 interface for Win NT & 2000
Gap handling : Appended to previous track
Used output format : User Defined Encoder
Selected bitrate : 768 kBit/s
Quality : High
Add ID3 tag : No
Command line compressor : C:\Program Files (x86)\Exact Audio Copy\FLAC\FLAC.EXE
Additional command line options : -8 -V -T "ARTIST=%artist%" -T "TITLE=%title%" -T "ALBUM=%albumtitle%" -T "DATE=%year%" -T "TRACKNUMBER=%tracknr%" -T "GENRE=%genre%" -T "PERFORMER=%albuminterpret%" -T "COMPOSER=%composer%" -T "ALBUMARTIST=%albumartist%" -T "DISCNUMBER=%cdnumber%" -T "TOTALDISCS=%totalcds%" -T "TOTALTRACKS=%numtracks%" -T "COMMENT=EAC Secure Mode, Test & Copy, AccurateRip, FLAC -8" %source% -o %dest%
TOC of the extracted CD
Track | Start | Length | Start sector | End sector
---------------------------------------------------------
1 | 0:00.00 | 5:49.41 | 0 | 26215
2 | 5:49.41 | 3:48.33 | 26216 | 43348
3 | 9:37.74 | 6:49.50 | 43349 | 74073
4 | 16:27.49 | 3:33.73 | 74074 | 90121
5 | 20:01.47 | 6:26.67 | 90122 | 119138
6 | 26:28.39 | 3:23.52 | 119139 | 134415
7 | 29:52.16 | 4:51.62 | 134416 | 156302
8 | 34:44.03 | 3:40.52 | 156303 | 172854
9 | 38:24.55 | 6:07.04 | 172855 | 200383
10 | 44:31.59 | 3:07.71 | 200384 | 214479
11 | 47:39.55 | 6:00.23 | 214480 | 241502
Track 1
Filename G:\DL\Francois Moutin & Kavita Shah Duo - Interplay (2018) [FLAC]\01 - Yo Go To My Head.wav
Pre-gap length 0:00:02.00
Peak level 99.7 %
Extraction speed 5.4 X
Track quality 100.0 %
Test CRC 63ACB1A0
Copy CRC 63ACB1A0
Track not present in AccurateRip database
Copy OK
Track 2
Filename G:\DL\Francois Moutin & Kavita Shah Duo - Interplay (2018) [FLAC]\02 - La Vie En Rose.wav
Pre-gap length 0:00:02.15
Peak level 99.9 %
Extraction speed 5.8 X
Track quality 100.0 %
Test CRC 5B264581
Copy CRC 5B264581
Track not present in AccurateRip database
Copy OK
Track 3
Filename G:\DL\Francois Moutin & Kavita Shah Duo - Interplay (2018) [FLAC]\03 - Coming Yesterday.wav
Pre-gap length 0:00:03.15
Peak level 99.9 %
Extraction speed 6.2 X
Track quality 99.9 %
Test CRC 6A652AFD
Copy CRC 6A652AFD
Track not present in AccurateRip database
Copy OK
Track 4
Filename G:\DL\Francois Moutin & Kavita Shah Duo - Interplay (2018) [FLAC]\04 - Bliss.wav
Pre-gap length 0:00:02.20
Peak level 99.3 %
Extraction speed 6.9 X
Track quality 100.0 %
Test CRC C5152851
Copy CRC C5152851
Track not present in AccurateRip database
Copy OK
Track 5
Filename G:\DL\Francois Moutin & Kavita Shah Duo - Interplay (2018) [FLAC]\05 - Falling In Love.wav
Pre-gap length 0:00:02.14
Peak level 99.8 %
Extraction speed 7.9 X
Track quality 100.0 %
Test CRC 52EE23D0
Copy CRC 52EE23D0
Track not present in AccurateRip database
Copy OK
Track 6
Filename G:\DL\Francois Moutin & Kavita Shah Duo - Interplay (2018) [FLAC]\06 - Aigue Marine.wav
Pre-gap length 0:00:02.72
Peak level 90.7 %
Extraction speed 7.8 X
Track quality 100.0 %
Test CRC C3C81660
Copy CRC C3C81660
Track not present in AccurateRip database
Copy OK
Track 7
Filename G:\DL\Francois Moutin & Kavita Shah Duo - Interplay (2018) [FLAC]\07 - Blah Blah.wav
Pre-gap length 0:00:02.20
Peak level 99.0 %
Extraction speed 7.3 X
Track quality 99.9 %
Test CRC BBABA1E5
Copy CRC BBABA1E5
Track not present in AccurateRip database
Copy OK
Track 8
Filename G:\DL\Francois Moutin & Kavita Shah Duo - Interplay (2018) [FLAC]\08 - Utopian Vision.wav
Pre-gap length 0:00:03.08
Peak level 91.9 %
Extraction speed 8.5 X
Track quality 100.0 %
Test CRC 6B8236BC
Copy CRC 6B8236BC
Track not present in AccurateRip database
Copy OK
Track 9
Filename G:\DL\Francois Moutin & Kavita Shah Duo - Interplay (2018) [FLAC]\09 - Interplay.wav
Pre-gap length 0:00:03.33
Peak level 99.8 %
Extraction speed 9.4 X
Track quality 100.0 %
Test CRC F784F832
Copy CRC F784F832
Track not present in AccurateRip database
Copy OK
Track 10
Filename G:\DL\Francois Moutin & Kavita Shah Duo - Interplay (2018) [FLAC]\10 - The Provider's gone.wav
Pre-gap length 0:00:02.37
Peak level 97.5 %
Extraction speed 9.0 X
Track quality 100.0 %
Test CRC E5545875
Copy CRC E5545875
Track not present in AccurateRip database
Copy OK
Track 11
Filename G:\DL\Francois Moutin & Kavita Shah Duo - Interplay (2018) [FLAC]\11 - Peace.wav
Pre-gap length 0:00:02.70
Peak level 81.0 %
Extraction speed 10.0 X
Track quality 100.0 %
Test CRC 698C04C6
Copy CRC 698C04C6
Track not present in AccurateRip database
Copy OK
None of the tracks are present in the AccurateRip database
No errors occurred
End of status report
---- CUETools DB Plugin V2.1.6
[CTDB TOCID: XdU1_ArbEfrM7HqKzJrRN0I49vQ-] found
Submit result: XdU1_ArbEfrM7HqKzJrRN0I49vQ- has been confirmed
Track | CTDB Status
1 | (2/2) Accurately ripped
2 | (2/2) Accurately ripped
3 | (2/2) Accurately ripped
4 | (2/2) Accurately ripped
5 | (2/2) Accurately ripped
6 | (2/2) Accurately ripped
7 | (2/2) Accurately ripped
8 | (2/2) Accurately ripped
9 | (2/2) Accurately ripped
10 | (2/2) Accurately ripped
11 | (2/2) Accurately ripped
==== Log checksum 35E3E4441E2324C9327A97D896E97E4D3D79D011E9FAFCE0647A3489564A98FB ====
 
Содержание индексной карты (.CUE)
REM GENRE Jazz
REM DATE 2018
REM DISCID A20C940B
REM COMMENT "ExactAudioCopy v1.3"
PERFORMER "Francois Moutin & Kavita Shah Duo"
TITLE "Interplay"
REM COMPOSER ""
FILE "01 - Yo Go To My Head.wav" WAVE
TRACK 01 AUDIO
TITLE "Yo Go To My Head"
PERFORMER "Francois Moutin & Kavita Shah Duo"
REM COMPOSER ""
INDEX 01 00:00:00
TRACK 02 AUDIO
TITLE "La Vie En Rose"
PERFORMER "Francois Moutin & Kavita Shah Duo"
REM COMPOSER ""
INDEX 00 05:47:26
FILE "02 - La Vie En Rose.wav" WAVE
INDEX 01 00:00:00
TRACK 03 AUDIO
TITLE "Coming Yesterday "
PERFORMER "Francois Moutin & Kavita Shah Duo"
REM COMPOSER ""
INDEX 00 03:45:18
FILE "03 - Coming Yesterday.wav" WAVE
INDEX 01 00:00:00
TRACK 04 AUDIO
TITLE "Bliss"
PERFORMER "Francois Moutin & Kavita Shah Duo"
REM COMPOSER ""
INDEX 00 06:47:30
FILE "04 - Bliss.wav" WAVE
INDEX 01 00:00:00
TRACK 05 AUDIO
TITLE "Falling In Love"
PERFORMER "Francois Moutin & Kavita Shah Duo"
REM COMPOSER ""
INDEX 00 03:31:59
FILE "05 - Falling In Love.wav" WAVE
INDEX 01 00:00:00
TRACK 06 AUDIO
TITLE "Aigue Marine"
PERFORMER "Francois Moutin & Kavita Shah Duo"
REM COMPOSER ""
INDEX 00 06:23:70
FILE "06 - Aigue Marine.wav" WAVE
INDEX 01 00:00:00
TRACK 07 AUDIO
TITLE "Blah Blah"
PERFORMER "Francois Moutin & Kavita Shah Duo"
REM COMPOSER ""
INDEX 00 03:21:32
FILE "07 - Blah Blah.wav" WAVE
INDEX 01 00:00:00
TRACK 08 AUDIO
TITLE "Utopian Vision"
PERFORMER "Francois Moutin & Kavita Shah Duo"
REM COMPOSER ""
INDEX 00 04:48:54
FILE "08 - Utopian Vision.wav" WAVE
INDEX 01 00:00:00
TRACK 09 AUDIO
TITLE "Interplay"
PERFORMER "Francois Moutin & Kavita Shah Duo"
REM COMPOSER ""
INDEX 00 03:37:19
FILE "09 - Interplay.wav" WAVE
INDEX 01 00:00:00
TRACK 10 AUDIO
TITLE "The Provider's gone"
PERFORMER "Francois Moutin & Kavita Shah Duo"
REM COMPOSER ""
INDEX 00 06:04:42
FILE "10 - The Provider's gone.wav" WAVE
INDEX 01 00:00:00
TRACK 11 AUDIO
TITLE "Peace"
PERFORMER "Francois Moutin & Kavita Shah Duo"
REM COMPOSER ""
INDEX 00 03:05:01
FILE "11 - Peace.wav" WAVE
INDEX 01 00:00:00
 
Об альбоме (сборнике)
Проект François Moutin & Kavita Shah Duo-это встреча умов и духов, которая охватывает виртуозность, спонтанность и лиризм через репертуар стандартов и оригинальной музыки, адаптированной к уникальному инструменту акустического баса и голоса. На Hungry Brain Франсуа и Кавита представят свой первый альбом "Interplay", выпущенный в феврале 2018 года на Date Time Records. “Interplay”, записанный на Sear Sound Studios в Нью-Йорке и Ле-Студия де Медона в Париж, в который вошли 11 треков, начиная от классики, как Эдит Пиаф “жизнь в розовом цвете” инструментальные песни, как Dafnis Прието-это “бла-бла” с оригинальными композициями Шах и Moutin. На альбоме также присутствуют специальные гости NEA Jazz Master Шейла Джордан по вокалу, которую многие считают пионером бас-и голосовых дуэтов, и легендарный французский пианист Martial Solal. Результатом является импровизационное путешествие по лирическим и бессловесным произведениям.
 
Состав
Acoustic Bass – François Moutin
Lead Vocals, Ukulele – Kavita Shah
Piano – Martial Solal (tracks: 3, 6)
Vocals – Sheila Jordan (tracks: 5, 11)
Скачивание доступно после регистрации!!
Приватный:
Да (DHT отключён)
Размер:
292.90 Мб (307,127,234 байт) » файлов: 21
Участники:
0 раздают, 0 качают (0 участников всего)
Внешние участники:
3 раздают, 1 качают (4 участников всего) [ Обновить ]
07:37
31
Нет комментариев. Ваш будет первым!