Поиск

(Vocal Jazz) [CD] The Swingle Singers - Jazz Sébastien Bach (Vol.1 & 2, 2CD) - 2000 (1963, 1968), FLAC (tracks+.cue), lossless

(Vocal Jazz) [CD] The Swingle Singers - Jazz Sébastien Bach (Vol.1 & 2, 2CD) - 2000 (1963, 1968), FLAC (tracks+.cue), lossless
Треклист:
The Swingle Singers - Jazz Sébastien Bach (Vol.1 & 2)
Жанр: Vocal Jazz
Носитель: CD
Страна-производитель диска (релиза): EU
Год издания: 2000 (1963, 1968)
Издатель (лейбл): Philips
Номер по каталогу: 542 552-2, 542 553-2
Страна исполнителя (группы): France
Аудиокодек: FLAC (*.flac)
Тип рипа: tracks+.cue
Битрейт аудио: lossless
Продолжительность: 01:03:04
Источник (релизер): Guiyom (Redacted)
Наличие сканов в содержимом раздачи: частично
 
Jazz Sébastien Bach (2000) {Philips 542 552-2}
01. Fugue in d minor (The Art Of The Fugue, BWV 1080) [2:17]
02. Choral n°1 (Wachet auf, ruft uns die Stimme, BWV 645) [2:40]
03. Aria (Orchestral Suite No. 3 in d minor, BWV 1068) [3:19]
04. Prelude No. 11 in F (The Well-Tempered Clavier, 2nd Book, BWV 880) [2:13]
05. Bourrée (English Suite No. 2 in a minor) [1:46]
06. Fugue No. 2 in c minor (The Well-Tempered Clavier, Book 2, BWV 871) [1:18]
07. Fugue No. 5 in D (The Well-Tempered Clavier, Book 1, BWV 850) [1:40]
08. Prelude No. 9 (The Well-Tempered Clavier, Book 2, BWV 878) [3:21]
09. Sinfonia (Partita No. 2 in c minor, BWV 826) [4:56]
10. Prelude No. 1 in C (The Well-Tempered Clavier, Book 2, BWV 870) [1:58]
11. Canon [1:56]
12. Invention A 2 Voix No. 1 (BWV 772, in C) [1:24]
13. Fugue No. 5 in D (The Well-Tempered Clavier, Book 2, BWV 874) [3:16]
Продолжительность: 00:32:04
 
Лог создания рипа
Exact Audio Copy V1.3 from 2. September 2016
EAC extraction logfile from 19. October 2017, 6:58
The Swingle Singers / Jazz Sébastien Bach
Used drive : MATSHITADVD-RAM UJ8E0 Adapter: 1 ID: 0
Read mode : Secure
Utilize accurate stream : Yes
Defeat audio cache : Yes
Make use of C2 pointers : No
Read offset correction : 103
Overread into Lead-In and Lead-Out : No
Fill up missing offset samples with silence : Yes
Delete leading and trailing silent blocks : No
Null samples used in CRC calculations : Yes
Used interface : Native Win32 interface for Win NT & 2000
Gap handling : Appended to previous track
Used output format : User Defined Encoder
Selected bitrate : 1024 kBit/s
Quality : High
Add ID3 tag : No
Command line compressor : C:\Program Files (x86)\EAC 1.3\Flac\flac.exe
Additional command line options : -8 -e -p -V -T "ARTIST=%artist%" -T "TITLE=%title%" -T "ALBUM=%albumtitle%" -T "DATE=%year%" -T "TRACKNUMBER=%tracknr%" -T "GENRE=%genre%" -T "PERFORMER=%albuminterpret%" -T "COMPOSER=%composer%" %haslyrics%--tag-from-file=LYRICS="%lyricsfile%"%haslyrics% -T "ALBUMARTIST=%albumartist%" -T "DISCNUMBER=%cdnumber%" -T "TOTALDISCS=%totalcds%" -T "TOTALTRACKS=%numtracks%" -T "COMMENT=%comment%" %source% -o %dest%
TOC of the extracted CD
Track | Start | Length | Start sector | End sector
---------------------------------------------------------
1 | 0:00.00 | 2:17.10 | 0 | 10284
2 | 2:17.10 | 2:39.70 | 10285 | 22279
3 | 4:57.05 | 3:19.27 | 22280 | 37231
4 | 8:16.32 | 2:13.35 | 37232 | 47241
5 | 10:29.67 | 1:46.08 | 47242 | 55199
6 | 12:16.00 | 1:18.10 | 55200 | 61059
7 | 13:34.10 | 1:40.00 | 61060 | 68559
8 | 15:14.10 | 3:20.70 | 68560 | 83629
9 | 18:35.05 | 4:56.00 | 83630 | 105829
10 | 23:31.05 | 1:57.40 | 105830 | 114644
11 | 25:28.45 | 1:56.07 | 114645 | 123351
12 | 27:24.52 | 1:23.53 | 123352 | 129629
13 | 28:48.30 | 3:15.60 | 129630 | 144314
Track 1
Filename D:\musique\Jazz\Jazz.Vocal\The Swingle Singers - Jazz Sébastien Bach (1963) [FLAC]\01 - Fugue in d minor (The Art Of The Fugue, BWV 1080).wav
Pre-gap length 0:00:02.00
Peak level 100.0 %
Extraction speed 1.4 X
Track quality 99.9 %
Test CRC DA6F30FB
Copy CRC DA6F30FB
Accurately ripped (confidence 3) [34B1EB9C] (AR v2)
Copy OK
Track 2
Filename D:\musique\Jazz\Jazz.Vocal\The Swingle Singers - Jazz Sébastien Bach (1963) [FLAC]\02 - Choral n°1 (Wachet auf, ruft uns die Stimme, BWV 645).wav
Pre-gap length 0:00:02.53
Peak level 96.6 %
Extraction speed 2.3 X
Track quality 100.0 %
Test CRC FD59E354
Copy CRC FD59E354
Accurately ripped (confidence 3) [9E0AFB78] (AR v2)
Copy OK
Track 3
Filename D:\musique\Jazz\Jazz.Vocal\The Swingle Singers - Jazz Sébastien Bach (1963) [FLAC]\03 - Aria (Orchestral Suite No. 3 in d minor, BWV 1068).wav
Pre-gap length 0:00:01.86
Peak level 73.1 %
Extraction speed 2.6 X
Track quality 100.0 %
Test CRC F6086681
Copy CRC F6086681
Accurately ripped (confidence 3) [53046EA4] (AR v2)
Copy OK
Track 4
Filename D:\musique\Jazz\Jazz.Vocal\The Swingle Singers - Jazz Sébastien Bach (1963) [FLAC]\04 - Prelude No. 11 in F (The Well-Tempered Clavier, 2nd Book, BWV 880).wav
Pre-gap length 0:00:02.00
Peak level 91.2 %
Extraction speed 1.7 X
Track quality 99.9 %
Test CRC 1FF7E2F8
Copy CRC 1FF7E2F8
Accurately ripped (confidence 3) [BB20D715] (AR v2)
Copy OK
Track 5
Filename D:\musique\Jazz\Jazz.Vocal\The Swingle Singers - Jazz Sébastien Bach (1963) [FLAC]\05 - Bourrée (English Suite No. 2 in a minor).wav
Pre-gap length 0:00:00.89
Peak level 74.2 %
Extraction speed 2.5 X
Track quality 100.0 %
Test CRC 87743173
Copy CRC 87743173
Accurately ripped (confidence 3) [9278E87C] (AR v2)
Copy OK
Track 6
Filename D:\musique\Jazz\Jazz.Vocal\The Swingle Singers - Jazz Sébastien Bach (1963) [FLAC]\06 - Fugue No. 2 in c minor (The Well-Tempered Clavier, Book 2, BWV 871).wav
Pre-gap length 0:00:02.00
Peak level 92.2 %
Extraction speed 2.4 X
Track quality 100.0 %
Test CRC 8E81A418
Copy CRC 8E81A418
Accurately ripped (confidence 3) [7CCC6538] (AR v2)
Copy OK
Track 7
Filename D:\musique\Jazz\Jazz.Vocal\The Swingle Singers - Jazz Sébastien Bach (1963) [FLAC]\07 - Fugue No. 5 in D (The Well-Tempered Clavier, Book 1, BWV 850).wav
Pre-gap length 0:00:01.77
Peak level 90.2 %
Extraction speed 2.6 X
Track quality 100.0 %
Test CRC 6B3A12E2
Copy CRC 6B3A12E2
Accurately ripped (confidence 3) [67C54FC7] (AR v2)
Copy OK
Track 8
Filename D:\musique\Jazz\Jazz.Vocal\The Swingle Singers - Jazz Sébastien Bach (1963) [FLAC]\08 - Prelude No. 9 (The Well-Tempered Clavier, Book 2, BWV 878).wav
Pre-gap length 0:00:01.60
Peak level 100.0 %
Extraction speed 3.2 X
Track quality 100.0 %
Test CRC 87725B02
Copy CRC 87725B02
Accurately ripped (confidence 3) [E9FE198B] (AR v2)
Copy OK
Track 9
Filename D:\musique\Jazz\Jazz.Vocal\The Swingle Singers - Jazz Sébastien Bach (1963) [FLAC]\09 - Sinfonia (Partita No. 2 in c minor, BWV 826).wav
Pre-gap length 0:00:01.93
Peak level 99.3 %
Extraction speed 3.5 X
Track quality 100.0 %
Test CRC CC3590F2
Copy CRC CC3590F2
Accurately ripped (confidence 3) [4BEC4EE6] (AR v2)
Copy OK
Track 10
Filename D:\musique\Jazz\Jazz.Vocal\The Swingle Singers - Jazz Sébastien Bach (1963) [FLAC]\10 - Prelude No. 1 in C (The Well-Tempered Clavier, Book 2, BWV 870).wav
Pre-gap length 0:00:01.66
Peak level 96.6 %
Extraction speed 2.0 X
Track quality 99.9 %
Test CRC 38E4685B
Copy CRC 38E4685B
Accurately ripped (confidence 3) [317DDF3C] (AR v2)
Copy OK
Track 11
Filename D:\musique\Jazz\Jazz.Vocal\The Swingle Singers - Jazz Sébastien Bach (1963) [FLAC]\11 - Canon.wav
Pre-gap length 0:00:01.53
Peak level 95.9 %
Extraction speed 3.1 X
Track quality 100.0 %
Test CRC F128A5BC
Copy CRC F128A5BC
Accurately ripped (confidence 3) [D3323AE9] (AR v2)
Copy OK
Track 12
Filename D:\musique\Jazz\Jazz.Vocal\The Swingle Singers - Jazz Sébastien Bach (1963) [FLAC]\12 - Invention A 2 Voix No. 1 (BWV 772, in C).wav
Pre-gap length 0:00:02.20
Peak level 94.6 %
Extraction speed 3.0 X
Track quality 100.0 %
Test CRC 22B1F770
Copy CRC 22B1F770
Accurately ripped (confidence 3) [DC45897D] (AR v2)
Copy OK
Track 13
Filename D:\musique\Jazz\Jazz.Vocal\The Swingle Singers - Jazz Sébastien Bach (1963) [FLAC]\13 - Fugue No. 5 in D (The Well-Tempered Clavier, Book 2, BWV 874).wav
Pre-gap length 0:00:01.53
Peak level 95.0 %
Extraction speed 2.1 X
Track quality 99.8 %
Test CRC DA2D123F
Copy CRC DA2D123F
Accurately ripped (confidence 3) [4BCFEFE3] (AR v2)
Copy OK
All tracks accurately ripped
No errors occurred
End of status report
---- CUETools DB Plugin V2.1.6
[CTDB TOCID: p.Vb1yAiW8cj.v4B6YIbTFU1ckI-] found
Submit result: already submitted
Track | CTDB Status
1 | ( 8/69) Accurately ripped, or (61/69) differs in 177 samples @00:00:26-00:00:45
2 | ( 8/69) Accurately ripped, or (61/69) differs in 173 samples @02:34:45-02:34:73,02:35:09-02:35:14,02:35:24,02:35:37-02:35:74,02:36:05-02:36:24,02:36:73
3 | ( 8/69) Accurately ripped, or (61/69) differs in 39 samples @03:16:07,03:16:13-03:16:34
4 | (69/69) Accurately ripped
5 | ( 8/69) Accurately ripped, or (61/69) differs in 62 samples @01:42:34-01:42:35,01:42:55-01:42:61,01:43:08-01:43:26
6 | (69/69) Accurately ripped
7 | ( 8/69) Accurately ripped, or (61/69) differs in 92 samples @01:35:61-01:35:71,01:36:02-01:36:28,01:36:46-01:36:53,01:37:44
8 | ( 8/69) Accurately ripped, or (61/69) differs in 56 samples @03:16:54-03:17:04,03:17:27,03:17:74-03:18:03,03:18:38
9 | ( 8/69) Accurately ripped, or (61/69) differs in 4 samples @04:53:70-04:53:73
10 | ( 8/69) Accurately ripped, or (61/69) differs in 68 samples @01:54:52-01:54:54,01:54:72-01:55:24
11 | (69/69) Accurately ripped
12 | ( 8/69) Accurately ripped, or (61/69) differs in 66 samples @01:20:20-01:20:53
13 | ( 8/69) Accurately ripped, or (61/69) differs in 45 samples @03:13:69,03:14:00,03:14:11-03:14:24,03:14:41,03:14:68-03:14:72
If you are sure that your rip contains errors, you can use CUETools to repair it.
==== Log checksum D33D4F449F43DC3C7D1CAE1A33599A8E221562DC2AA5B713D2FE075A84117F79 ====
 
Содержание индексной карты (.CUE)
REM GENRE Jazz
REM DATE 1963
REM DISCID AB07840D
REM COMMENT "ExactAudioCopy v1.3"
CATALOG 0000000000000
PERFORMER "The Swingle Singers"
TITLE "Jazz Sébastien Bach"
REM COMPOSER "Johann Sebastian Bach"
FILE "01 - Fugue in d minor (The Art Of The Fugue, BWV 1080).flac" WAVE
TRACK 01 AUDIO
TITLE "Fugue in d minor (The Art Of The Fugue, BWV 1080)"
PERFORMER "The Swingle Singers"
REM COMPOSER "Johann Sebastian Bach"
ISRC FRZ036304900
INDEX 01 00:00:00
FILE "02 - Choral n°1 (Wachet auf, ruft uns die Stimme, BWV 645).flac" WAVE
TRACK 02 AUDIO
TITLE "Choral n°1 (Wachet auf, ruft uns die Stimme, BWV 645)"
PERFORMER "The Swingle Singers"
REM COMPOSER "Johann Sebastian Bach"
ISRC FRZ036304910
PREGAP 00:02:40
INDEX 01 00:00:00
FILE "03 - Aria (Orchestral Suite No. 3 in d minor, BWV 1068).flac" WAVE
TRACK 03 AUDIO
TITLE "Aria (Orchestral Suite No. 3 in d minor, BWV 1068)"
PERFORMER "The Swingle Singers"
REM COMPOSER "Johann Sebastian Bach"
ISRC FRZ036304930
PREGAP 00:01:65
INDEX 01 00:00:00
FILE "04 - Prelude No. 11 in F (The Well-Tempered Clavier, 2nd Book, BWV 880).flac" WAVE
TRACK 04 AUDIO
TITLE "Prelude No. 11 in F (The Well-Tempered Clavier, 2nd Book, BWV 880)"
PERFORMER "The Swingle Singers"
REM COMPOSER "Johann Sebastian Bach"
ISRC FRZ036304940
PREGAP 00:02:00
INDEX 01 00:00:00
FILE "05 - Bourrée (English Suite No. 2 in a minor).flac" WAVE
TRACK 05 AUDIO
TITLE "Bourrée (English Suite No. 2 in a minor)"
PERFORMER "The Swingle Singers"
REM COMPOSER "Johann Sebastian Bach"
ISRC FRZ036304950
PREGAP 00:00:67
INDEX 01 00:00:00
FILE "06 - Fugue No. 2 in c minor (The Well-Tempered Clavier, Book 2, BWV 871).flac" WAVE
TRACK 06 AUDIO
TITLE "Fugue No. 2 in c minor (The Well-Tempered Clavier, Book 2, BWV 871)"
PERFORMER "The Swingle Singers"
REM COMPOSER "Johann Sebastian Bach"
ISRC FRZ036304960
PREGAP 00:02:00
INDEX 01 00:00:00
FILE "07 - Fugue No. 5 in D (The Well-Tempered Clavier, Book 1, BWV 850).flac" WAVE
TRACK 07 AUDIO
TITLE "Fugue No. 5 in D (The Well-Tempered Clavier, Book 1, BWV 850)"
PERFORMER "The Swingle Singers"
REM COMPOSER "Johann Sebastian Bach"
ISRC FRZ036304970
PREGAP 00:01:58
INDEX 01 00:00:00
FILE "08 - Prelude No. 9 (The Well-Tempered Clavier, Book 2, BWV 878).flac" WAVE
TRACK 08 AUDIO
TITLE "Prelude No. 9 (The Well-Tempered Clavier, Book 2, BWV 878)"
PERFORMER "The Swingle Singers"
REM COMPOSER "Johann Sebastian Bach"
ISRC FRZ036304980
PREGAP 00:01:45
INDEX 01 00:00:00
FILE "09 - Sinfonia (Partita No. 2 in c minor, BWV 826).flac" WAVE
TRACK 09 AUDIO
TITLE "Sinfonia (Partita No. 2 in c minor, BWV 826)"
PERFORMER "The Swingle Singers"
REM COMPOSER "Johann Sebastian Bach"
ISRC FRZ036305060
PREGAP 00:01:70
INDEX 01 00:00:00
FILE "10 - Prelude No. 1 in C (The Well-Tempered Clavier, Book 2, BWV 870).flac" WAVE
TRACK 10 AUDIO
TITLE "Prelude No. 1 in C (The Well-Tempered Clavier, Book 2, BWV 870)"
PERFORMER "The Swingle Singers"
REM COMPOSER "Johann Sebastian Bach"
ISRC FRZ036305010
PREGAP 00:01:50
INDEX 01 00:00:00
FILE "11 - Canon.flac" WAVE
TRACK 11 AUDIO
TITLE "Canon"
PERFORMER "The Swingle Singers"
REM COMPOSER "Johann Sebastian Bach"
ISRC FRZ036305020
PREGAP 00:01:40
INDEX 01 00:00:00
FILE "12 - Invention A 2 Voix No. 1 (BWV 772, in C).flac" WAVE
TRACK 12 AUDIO
TITLE "Invention A 2 Voix No. 1 (BWV 772, in C)"
PERFORMER "The Swingle Singers"
REM COMPOSER "Johann Sebastian Bach"
ISRC FRZ036305030
PREGAP 00:02:15
INDEX 01 00:00:00
FILE "13 - Fugue No. 5 in D (The Well-Tempered Clavier, Book 2, BWV 874).flac" WAVE
TRACK 13 AUDIO
TITLE "Fugue No. 5 in D (The Well-Tempered Clavier, Book 2, BWV 874)"
PERFORMER "The Swingle Singers"
REM COMPOSER "Johann Sebastian Bach"
ISRC FRZ036305050
PREGAP 00:01:40
INDEX 01 00:00:00
 
Скриншот спектра частот
 
Jazz Sébastien Bach, Volume 2 (2000) {Philips ‎542 553-2}
01. Vivace (Concerto for two violins in d minor, BWV 1043) [3:18]
02. Prelude and Fugue No. 10 in e minor (The Well-Tempered Clavier, Book 1, BWV 855) [3:00]
03. Choral «Jesus bleibet meine Freude» (Cantate BWV 147) [3:20]
04. Gavotte (Partita No. 3 for Violin solo in E, BWV 1006) [2:31]
05. Prelude and Fugue No. 1 in C (The Well-Tempered Clavier, Book 1, BWV 846) [3:22]
06. Fugue in G (Prelude and Fugue for Organ, BWV 541) [3:16]
07. Adagio (Sonata No. 3 for Violin and Harpsichord in e minor, BWV 1016) [3:57]
08. Prelude and Fugue No. 3 in C# (The Well-Tempered Clavier, Book 1, BWV 848) [3:19]
09. Choral «Nun komm der Heiden Heiland» (Leipzig Chorals, BWV 859) [3:31]
10. Fugue No. 21 in Bb (The Well-Tempered Clavier, Book 1, BWV 866) [1:26]
Продолжительность: 00:31:00
 
Лог создания рипа
Exact Audio Copy V1.3 from 2. September 2016
EAC extraction logfile from 12. November 2017, 12:50
The Swingle Singers / Jazz Sébastien Bach, Volume 2
Used drive : MATSHITADVD-RAM UJ8E0 Adapter: 1 ID: 0
Read mode : Secure
Utilize accurate stream : Yes
Defeat audio cache : Yes
Make use of C2 pointers : No
Read offset correction : 103
Overread into Lead-In and Lead-Out : No
Fill up missing offset samples with silence : Yes
Delete leading and trailing silent blocks : No
Null samples used in CRC calculations : Yes
Used interface : Native Win32 interface for Win NT & 2000
Gap handling : Appended to previous track
Used output format : User Defined Encoder
Selected bitrate : 1024 kBit/s
Quality : High
Add ID3 tag : No
Command line compressor : C:\Program Files (x86)\EAC 1.3\Flac\flac.exe
Additional command line options : -8 -e -p -V -T "ARTIST=%artist%" -T "TITLE=%title%" -T "ALBUM=%albumtitle%" -T "DATE=%year%" -T "TRACKNUMBER=%tracknr%" -T "GENRE=%genre%" -T "PERFORMER=%albuminterpret%" -T "COMPOSER=%composer%" %haslyrics%--tag-from-file=LYRICS="%lyricsfile%"%haslyrics% -T "ALBUMARTIST=%albumartist%" -T "DISCNUMBER=%cdnumber%" -T "TOTALDISCS=%totalcds%" -T "TOTALTRACKS=%numtracks%" -T "COMMENT=%comment%" %source% -o %dest%
TOC of the extracted CD
Track | Start | Length | Start sector | End sector
---------------------------------------------------------
1 | 0:00.00 | 3:18.32 | 0 | 14881
2 | 3:18.32 | 3:00.05 | 14882 | 28386
3 | 6:18.37 | 3:20.25 | 28387 | 43411
4 | 9:38.62 | 2:30.68 | 43412 | 54729
5 | 12:09.55 | 3:22.17 | 54730 | 69896
6 | 15:31.72 | 3:15.40 | 69897 | 84561
7 | 18:47.37 | 3:56.38 | 84562 | 102299
8 | 22:44.00 | 3:19.05 | 102300 | 117229
9 | 26:03.05 | 3:31.05 | 117230 | 133059
10 | 29:34.10 | 1:25.57 | 133060 | 139491
Track 1
Filename D:\musique\Jazz\Jazz.Vocal\The Swingle Singers - Jazz Sébastien Bach, Volume 2 (1968) [FLAC]\01 - Vivace (Concerto for two violins in d minor, BWV 1043).wav
Pre-gap length 0:00:02.00
Peak level 96.1 %
Extraction speed 2.3 X
Track quality 100.0 %
Test CRC BC81DBDB
Copy CRC BC81DBDB
Accurately ripped (confidence 3) [7D20BD30] (AR v2)
Copy OK
Track 2
Filename D:\musique\Jazz\Jazz.Vocal\The Swingle Singers - Jazz Sébastien Bach, Volume 2 (1968) [FLAC]\02 - Prelude and Fugue No. 10 in e minor (The Well-Tempered Clavier, Book 1, BWV 855).wav
Pre-gap length 0:00:01.56
Peak level 95.6 %
Extraction speed 2.5 X
Track quality 100.0 %
Test CRC AF979702
Copy CRC AF979702
Accurately ripped (confidence 3) [71BE4E3A] (AR v2)
Copy OK
Track 3
Filename D:\musique\Jazz\Jazz.Vocal\The Swingle Singers - Jazz Sébastien Bach, Volume 2 (1968) [FLAC]\03 - Choral «Jesus bleibet meine Freude» (Cantate BWV 147).wav
Pre-gap length 0:00:01.96
Peak level 96.5 %
Extraction speed 2.7 X
Track quality 100.0 %
Test CRC 0919CCA8
Copy CRC 0919CCA8
Accurately ripped (confidence 3) [9EE27F35] (AR v2)
Copy OK
Track 4
Filename D:\musique\Jazz\Jazz.Vocal\The Swingle Singers - Jazz Sébastien Bach, Volume 2 (1968) [FLAC]\04 - Gavotte (Partita No. 3 for Violin solo in E, BWV 1006).wav
Pre-gap length 0:00:01.29
Peak level 94.9 %
Extraction speed 2.7 X
Track quality 100.0 %
Test CRC EC1F7F0A
Copy CRC EC1F7F0A
Accurately ripped (confidence 3) [8802EDBA] (AR v2)
Copy OK
Track 5
Filename D:\musique\Jazz\Jazz.Vocal\The Swingle Singers - Jazz Sébastien Bach, Volume 2 (1968) [FLAC]\05 - Prelude and Fugue No. 1 in C (The Well-Tempered Clavier, Book 1, BWV 846).wav
Pre-gap length 0:00:01.50
Peak level 88.4 %
Extraction speed 3.0 X
Track quality 100.0 %
Test CRC C34DDA35
Copy CRC C34DDA35
Accurately ripped (confidence 3) [2B990ED9] (AR v2)
Copy OK
Track 6
Filename D:\musique\Jazz\Jazz.Vocal\The Swingle Singers - Jazz Sébastien Bach, Volume 2 (1968) [FLAC]\06 - Fugue in G (Prelude and Fugue for Organ, BWV 541).wav
Pre-gap length 0:00:01.13
Peak level 100.0 %
Extraction speed 2.3 X
Track quality 99.9 %
Test CRC C147741E
Copy CRC C147741E
Accurately ripped (confidence 3) [11A4465D] (AR v2)
Copy OK
Track 7
Filename D:\musique\Jazz\Jazz.Vocal\The Swingle Singers - Jazz Sébastien Bach, Volume 2 (1968) [FLAC]\07 - Adagio (Sonata No. 3 for Violin and Harpsichord in e minor, BWV 1016).wav
Pre-gap length 0:00:01.62
Peak level 95.3 %
Extraction speed 3.4 X
Track quality 100.0 %
Test CRC 5114FC57
Copy CRC 5114FC57
Accurately ripped (confidence 3) [5DBF7576] (AR v2)
Copy OK
Track 8
Filename D:\musique\Jazz\Jazz.Vocal\The Swingle Singers - Jazz Sébastien Bach, Volume 2 (1968) [FLAC]\08 - Prelude and Fugue No. 3 in C# (The Well-Tempered Clavier, Book 1, BWV 848).wav
Pre-gap length 0:00:01.70
Peak level 92.9 %
Extraction speed 3.4 X
Track quality 100.0 %
Test CRC 2292DEF8
Copy CRC 2292DEF8
Accurately ripped (confidence 3) [C48216AB] (AR v2)
Copy OK
Track 9
Filename D:\musique\Jazz\Jazz.Vocal\The Swingle Singers - Jazz Sébastien Bach, Volume 2 (1968) [FLAC]\09 - Choral «Nun komm der Heiden Heiland» (Leipzig Chorals, BWV 859).wav
Pre-gap length 0:00:01.53
Peak level 99.4 %
Extraction speed 3.6 X
Track quality 100.0 %
Test CRC 0FDA2E7E
Copy CRC 0FDA2E7E
Accurately ripped (confidence 3) [CFE311E5] (AR v2)
Copy OK
Track 10
Filename D:\musique\Jazz\Jazz.Vocal\The Swingle Singers - Jazz Sébastien Bach, Volume 2 (1968) [FLAC]\10 - Fugue No. 21 in Bb (The Well-Tempered Clavier, Book 1, BWV 866).wav
Pre-gap length 0:00:01.20
Peak level 99.0 %
Extraction speed 3.1 X
Track quality 100.0 %
Test CRC 44FE84B1
Copy CRC 44FE84B1
Accurately ripped (confidence 3) [DE884724] (AR v2)
Copy OK
All tracks accurately ripped
No errors occurred
End of status report
---- CUETools DB Plugin V2.1.6
[CTDB TOCID: cbo_4kaSdvgQaYhgxnvZFSDxfis-] found
Submit result: cbo_4kaSdvgQaYhgxnvZFSDxfis- has been confirmed
Track | CTDB Status
1 | ( 8/36) Accurately ripped, or (26/36) differs in 61 samples @00:00:31-00:00:48
2 | (34/36) Accurately ripped
3 | (34/36) Accurately ripped
4 | (34/36) Accurately ripped
5 | (34/36) Accurately ripped
6 | (34/36) Accurately ripped
7 | (34/36) Accurately ripped
8 | (34/36) Accurately ripped
9 | (34/36) Accurately ripped
10 | (34/36) Accurately ripped
If you are sure that your rip contains errors, you can use CUETools to repair it.
==== Log checksum 2F5C259E283F5CB13FCBF64828F866E7FC7B068B776883000596C41BAE8DCB34 ====
 
Содержание индексной карты (.CUE)
REM GENRE Vocal
REM DATE 1968
REM DISCID 7907430A
REM COMMENT "ExactAudioCopy v1.3"
CATALOG 0000000000000
PERFORMER "The Swingle Singers"
TITLE "Jazz Sébastien Bach, Volume 2"
REM COMPOSER "Johann Sebastian Bach"
FILE "01 - Vivace (Concerto for two violins in d minor, BWV 1043).wav" WAVE
TRACK 01 AUDIO
TITLE "Vivace (Concerto for two violins in d minor, BWV 1043)"
PERFORMER "The Swingle Singers"
REM COMPOSER "Johann Sebastian Bach"
ISRC FRZ036803890
INDEX 01 00:00:00
TRACK 02 AUDIO
TITLE "Prelude and Fugue No. 10 in e minor (The Well-Tempered Clavier, Book 1, BWV 855)"
PERFORMER "The Swingle Singers"
REM COMPOSER "Johann Sebastian Bach"
ISRC FRZ036803900
INDEX 00 03:16:65
FILE "02 - Prelude and Fugue No. 10 in e minor (The Well-Tempered Clavier, Book 1, BWV 855).wav" WAVE
INDEX 01 00:00:00
TRACK 03 AUDIO
TITLE "Choral «Jesus bleibet meine Freude» (Cantate BWV 147)"
PERFORMER "The Swingle Singers"
REM COMPOSER "Johann Sebastian Bach"
ISRC FRZ036803910
INDEX 00 02:58:08
FILE "03 - Choral «Jesus bleibet meine Freude» (Cantate BWV 147).wav" WAVE
INDEX 01 00:00:00
TRACK 04 AUDIO
TITLE "Gavotte (Partita No. 3 for Violin solo in E, BWV 1006)"
PERFORMER "The Swingle Singers"
REM COMPOSER "Johann Sebastian Bach"
ISRC FRZ036803920
INDEX 00 03:19:03
FILE "04 - Gavotte (Partita No. 3 for Violin solo in E, BWV 1006).wav" WAVE
INDEX 01 00:00:00
TRACK 05 AUDIO
TITLE "Prelude and Fugue No. 1 in C (The Well-Tempered Clavier, Book 1, BWV 846)"
PERFORMER "The Swingle Singers"
REM COMPOSER "Johann Sebastian Bach"
ISRC FRZ036803930
INDEX 00 02:29:30
FILE "05 - Prelude and Fugue No. 1 in C (The Well-Tempered Clavier, Book 1, BWV 846).wav" WAVE
INDEX 01 00:00:00
TRACK 06 AUDIO
TITLE "Fugue in G (Prelude and Fugue for Organ, BWV 541)"
PERFORMER "The Swingle Singers"
REM COMPOSER "Johann Sebastian Bach"
ISRC FRZ036803940
INDEX 00 03:21:07
FILE "06 - Fugue in G (Prelude and Fugue for Organ, BWV 541).wav" WAVE
INDEX 01 00:00:00
TRACK 07 AUDIO
TITLE "Adagio (Sonata No. 3 for Violin and Harpsichord in e minor, BWV 1016)"
PERFORMER "The Swingle Singers"
REM COMPOSER "Johann Sebastian Bach"
ISRC FRZ036803950
INDEX 00 03:13:68
FILE "07 - Adagio (Sonata No. 3 for Violin and Harpsichord in e minor, BWV 1016).wav" WAVE
INDEX 01 00:00:00
TRACK 08 AUDIO
TITLE "Prelude and Fugue No. 3 in C# (The Well-Tempered Clavier, Book 1, BWV 848)"
PERFORMER "The Swingle Singers"
REM COMPOSER "Johann Sebastian Bach"
ISRC FRZ036803960
INDEX 00 03:54:60
FILE "08 - Prelude and Fugue No. 3 in C# (The Well-Tempered Clavier, Book 1, BWV 848).wav" WAVE
INDEX 01 00:00:00
TRACK 09 AUDIO
TITLE "Choral «Nun komm der Heiden Heiland» (Leipzig Chorals, BWV 859)"
PERFORMER "The Swingle Singers"
REM COMPOSER "Johann Sebastian Bach"
ISRC FRZ036803970
INDEX 00 03:17:40
FILE "09 - Choral «Nun komm der Heiden Heiland» (Leipzig Chorals, BWV 859).wav" WAVE
INDEX 01 00:00:00
TRACK 10 AUDIO
TITLE "Fugue No. 21 in Bb (The Well-Tempered Clavier, Book 1, BWV 866)"
PERFORMER "The Swingle Singers"
REM COMPOSER "Johann Sebastian Bach"
ISRC FRZ036803980
INDEX 00 03:29:65
FILE "10 - Fugue No. 21 in Bb (The Well-Tempered Clavier, Book 1, BWV 866).wav" WAVE
INDEX 01 00:00:00
 
Скриншот спектра частот
Скачивание доступно после регистрации!!
Приватный:
Нет (DHT включён)
Размер:
349.86 Мб (366,859,908 байт) » файлов: 42
Участники:
0 раздают, 0 качают (0 участников всего)
Внешние участники:
11 раздают, 4 качают (15 участников всего) [ Обновить ]
07:34
12
Нет комментариев. Ваш будет первым!