Поиск

(Vocal Jazz) [CD] Les Double Six - Les Double Six Meets Quincy Jones (1960) & Les Double Six (1962) - 2016, FLAC (tracks+.cue), lossless

(Vocal Jazz) [CD] Les Double Six - Les Double Six Meets Quincy Jones (1960) & Les Double Six (1962) - 2016, FLAC (tracks+.cue), lossless
Треклист:
Les Double Six Meets Quincy Jones (1960) & Les Double Six (1962)
Жанр: Vocal Jazz
Носитель: CD
Страна-производитель диска (релиза): Europe
Год издания: 2016
Издатель (лейбл): Sony Music
Номер по каталогу: 88985309282
Страна исполнителя (группы): France
Аудиокодек: FLAC (*.flac)
Тип рипа: tracks+.cue
Битрейт аудио: lossless
Продолжительность: 01:15:56
Источник (релизер): omen (Redacted)
Наличие сканов в содержимом раздачи: Под спойлером
Треклист:
01. For Lena And Lennie - En Flânant Dans Paris [4:10]
02. Rat Race - La Course Au Rat [2:38]
03. Stockholm Sweetin' - Un Coin Merveilleux [5:41]
04. Boo's Bloos - Au Temps Des Indiens [5:01]
05. Doodlin' - Tout En Dodelinant [4:50]
06. Meet Benny Bailey - Au Bout Du Fil [2:49]
07. Evening In Paris - Il Y A Fort Longtemps [4:27]
08. Count 'Em - T'as Foutu L'Camp [5:14]
09. Tickle Toe - Le Racket Et Les Balles [2:26]
10. Early Autumn - Finalement L'automne Est Arrivé [3:24]
11. Sweets - Les Quatre De L'opéra [2:41]
12. Naima - Naima [4:16]
13. Westwood Walk - Histoire De Baryton [2:42]
14. A Night In Tunisia - Le Tapis Volant [3:01]
15. A Ballad - Une Ballade [3:03]
17. Boplicity - La Légende Du Troubadour [3:01]
18. Moanin' - La Complainte Du Bagnard [3:11]
19. Fascinating Rhythm - Le Pas Qui Plaira [2:41]
20. Walkin' - Un Tour Au Bois [10:39]
 
Фото обложки с Discogs
 
Лог создания рипа
Exact Audio Copy V1.0 beta 3 from 29. August 2011
EAC extraction logfile from 22. December 2016, 9:24
Les Double Six / Les Double Six
Used drive : MATSHITADVD-RAM UJ8G6 Adapter: 0 ID: 0
Read mode : Secure
Utilize accurate stream : Yes
Defeat audio cache : Yes
Make use of C2 pointers : No
Read offset correction : 103
Overread into Lead-In and Lead-Out : No
Fill up missing offset samples with silence : Yes
Delete leading and trailing silent blocks : No
Null samples used in CRC calculations : Yes
Used interface : Native Win32 interface for Win NT & 2000
Gap handling : Appended to previous track
Used output format : User Defined Encoder
Selected bitrate : 1024 kBit/s
Quality : High
Add ID3 tag : No
Command line compressor : C:\Program Files (x86)\Exact Audio Copy\Flac\flac.exe
Additional command line options : -8 -e -p -V -T "ARTIST=%artist%" -T "TITLE=%title%" -T "ALBUM=%albumtitle%" -T "DATE=%year%" -T "TRACKNUMBER=%tracknr%" -T "GENRE=%genre%" -T "PERFORMER=%albuminterpret%" -T "COMPOSER=%composer%" %haslyrics%--tag-from-file=LYRICS="%lyricsfile%"%haslyrics% -T "ALBUMARTIST=%albumartist%" -T "DISCNUMBER=%cdnumber%" -T "TOTALDISCS=%totalcds%" -T "TOTALTRACKS=%numtracks%" -T "COMMENT=%comment%" %source% -o %dest%
TOC of the extracted CD
Track | Start | Length | Start sector | End sector
---------------------------------------------------------
1 | 0:00.32 | 4:09.73 | 32 | 18779
2 | 4:10.30 | 2:38.27 | 18780 | 30656
3 | 6:48.57 | 5:41.35 | 30657 | 56266
4 | 12:30.17 | 5:00.65 | 56267 | 78831
5 | 17:31.07 | 4:49.45 | 78832 | 100551
6 | 22:20.52 | 2:49.25 | 100552 | 113251
7 | 25:10.02 | 4:26.38 | 113252 | 133239
8 | 29:36.40 | 5:13.65 | 133240 | 156779
9 | 34:50.30 | 2:26.35 | 156780 | 167764
10 | 37:16.65 | 3:24.37 | 167765 | 183101
11 | 40:41.27 | 2:40.73 | 183102 | 195174
12 | 43:22.25 | 4:15.42 | 195175 | 214341
13 | 47:37.67 | 2:42.35 | 214342 | 226526
14 | 50:20.27 | 3:01.20 | 226527 | 240121
15 | 53:21.47 | 3:02.45 | 240122 | 253816
16 | 56:24.17 | 2:53.53 | 253817 | 266844
17 | 59:17.70 | 3:01.35 | 266845 | 280454
18 | 62:19.30 | 3:11.22 | 280455 | 294801
19 | 65:30.52 | 2:40.50 | 294802 | 306851
20 | 68:11.27 | 10:39.05 | 306852 | 354781
Track 1
Filename C:\Les Double Six - Les Double Six (2016) - FLAC\01 - For Lena And Lennie - En Flânant Dans Paris.wav
Pre-gap length 0:00:02.42
Peak level 93.3 %
Extraction speed 2.0 X
Track quality 99.9 %
Test CRC 13FA3830
Copy CRC 13FA3830
Cannot be verified as accurate (confidence 17) [ADA83D46], AccurateRip returned [CD2A9855] (AR v2)
Copy OK
Track 2
Filename C:\Les Double Six - Les Double Six (2016) - FLAC\02 - Rat Race - La Course Au Rat.wav
Pre-gap length 0:00:01.00
Peak level 94.4 %
Extraction speed 1.8 X
Track quality 99.9 %
Test CRC EA590A67
Copy CRC EA590A67
Cannot be verified as accurate (confidence 17) [65C6B636], AccurateRip returned [20CC4C2A] (AR v2)
Copy OK
Track 3
Filename C:\Les Double Six - Les Double Six (2016) - FLAC\03 - Stockholm Sweetin' - Un Coin Merveilleux.wav
Pre-gap length 0:00:01.00
Peak level 94.3 %
Extraction speed 3.1 X
Track quality 100.0 %
Test CRC C2B1F7CE
Copy CRC C2B1F7CE
Cannot be verified as accurate (confidence 17) [79F877E8], AccurateRip returned [B98ED1AD] (AR v2)
Copy OK
Track 4
Filename C:\Les Double Six - Les Double Six (2016) - FLAC\04 - Boo's Bloos - Au Temps Des Indiens.wav
Pre-gap length 0:00:01.00
Peak level 83.1 %
Extraction speed 3.4 X
Track quality 100.0 %
Test CRC 1C6C4196
Copy CRC 1C6C4196
Cannot be verified as accurate (confidence 17) [647B0BFD], AccurateRip returned [F902C1DA] (AR v2)
Copy OK
Track 5
Filename C:\Les Double Six - Les Double Six (2016) - FLAC\05 - Doodlin' - Tout En Dodelinant.wav
Pre-gap length 0:00:01.00
Peak level 89.6 %
Extraction speed 3.6 X
Track quality 100.0 %
Test CRC 8FB97F21
Copy CRC 8FB97F21
Cannot be verified as accurate (confidence 17) [E0380DDA], AccurateRip returned [6E88E8E3] (AR v2)
Copy OK
Track 6
Filename C:\Les Double Six - Les Double Six (2016) - FLAC\06 - Meet Benny Bailey - Au Bout Du Fil.wav
Pre-gap length 0:00:01.00
Peak level 94.3 %
Extraction speed 2.4 X
Track quality 99.9 %
Test CRC 8493A009
Copy CRC 8493A009
Cannot be verified as accurate (confidence 17) [50AAC48A], AccurateRip returned [81DE8532] (AR v2)
Copy OK
Track 7
Filename C:\Les Double Six - Les Double Six (2016) - FLAC\07 - Evening In Paris - Il Y A Fort Longtemps.wav
Pre-gap length 0:00:01.00
Peak level 64.7 %
Extraction speed 3.8 X
Track quality 100.0 %
Test CRC A4DFE482
Copy CRC A4DFE482
Cannot be verified as accurate (confidence 17) [497E63ED], AccurateRip returned [F1AD1B0A] (AR v2)
Copy OK
Track 8
Filename C:\Les Double Six - Les Double Six (2016) - FLAC\08 - Count 'Em - T'as Foutu L'Camp.wav
Pre-gap length 0:00:01.00
Peak level 93.8 %
Extraction speed 4.1 X
Track quality 100.0 %
Test CRC D76C1322
Copy CRC D76C1322
Cannot be verified as accurate (confidence 17) [AFEC00E5], AccurateRip returned [B43F134B] (AR v2)
Copy OK
Track 9
Filename C:\Les Double Six - Les Double Six (2016) - FLAC\09 - Tickle Toe - Le Racket Et Les Balles.wav
Pre-gap length 0:00:01.00
Peak level 87.7 %
Extraction speed 3.8 X
Track quality 100.0 %
Test CRC 31CADD52
Copy CRC 31CADD52
Cannot be verified as accurate (confidence 17) [C607CDCA], AccurateRip returned [76F667F1] (AR v2)
Copy OK
Track 10
Filename C:\Les Double Six - Les Double Six (2016) - FLAC\10 - Early Autumn - Finalement L'automne Est Arrivé.wav
Pre-gap length 0:00:01.00
Peak level 85.3 %
Extraction speed 3.0 X
Track quality 99.9 %
Test CRC 5EA106D7
Copy CRC 5EA106D7
Cannot be verified as accurate (confidence 17) [3ACE5404], AccurateRip returned [33075274] (AR v2)
Copy OK
Track 11
Filename C:\Les Double Six - Les Double Six (2016) - FLAC\11 - Sweets - Les Quatre De L'opéra.wav
Pre-gap length 0:00:01.00
Peak level 86.2 %
Extraction speed 2.7 X
Track quality 99.9 %
Test CRC 5E02F2CA
Copy CRC 5E02F2CA
Cannot be verified as accurate (confidence 17) [F1DC0378], AccurateRip returned [1546A3F6] (AR v2)
Copy OK
Track 12
Filename C:\Les Double Six - Les Double Six (2016) - FLAC\12 - Naima - Naima.wav
Pre-gap length 0:00:01.00
Peak level 82.6 %
Extraction speed 4.5 X
Track quality 100.0 %
Test CRC 46613B89
Copy CRC 46613B89
Cannot be verified as accurate (confidence 17) [21395A31], AccurateRip returned [5669AEBD] (AR v2)
Copy OK
Track 13
Filename C:\Les Double Six - Les Double Six (2016) - FLAC\13 - Westwood Walk - Histoire De Baryton.wav
Pre-gap length 0:00:01.00
Peak level 78.7 %
Extraction speed 4.3 X
Track quality 100.0 %
Test CRC 919CF537
Copy CRC 919CF537
Cannot be verified as accurate (confidence 17) [1C980F18], AccurateRip returned [AA5D0122] (AR v2)
Copy OK
Track 14
Filename C:\Les Double Six - Les Double Six (2016) - FLAC\14 - A Night In Tunisia - Le Tapis Volant.wav
Pre-gap length 0:00:01.00
Peak level 87.7 %
Extraction speed 3.1 X
Track quality 99.9 %
Test CRC D48558A1
Copy CRC D48558A1
Cannot be verified as accurate (confidence 17) [CAA0DED7], AccurateRip returned [69E9649C] (AR v2)
Copy OK
Track 15
Filename C:\Les Double Six - Les Double Six (2016) - FLAC\15 - A Ballad - Une Ballade.wav
Pre-gap length 0:00:01.00
Peak level 84.5 %
Extraction speed 3.2 X
Track quality 99.9 %
Test CRC 499E17C5
Copy CRC 499E17C5
Cannot be verified as accurate (confidence 17) [3342B3BB], AccurateRip returned [B443A876] (AR v2)
Copy OK
Track 16
Filename C:\Les Double Six - Les Double Six (2016) - FLAC\16 - Scrapple From The Apple - À Bâtons Rompus.wav
Pre-gap length 0:00:01.00
Peak level 86.5 %
Extraction speed 4.6 X
Track quality 100.0 %
Test CRC 128FDC77
Copy CRC 128FDC77
Cannot be verified as accurate (confidence 17) [30228780], AccurateRip returned [23335ACA] (AR v2)
Copy OK
Track 17
Filename C:\Les Double Six - Les Double Six (2016) - FLAC\17 - Boplicity - La Légende Du Troubadour.wav
Pre-gap length 0:00:01.00
Peak level 94.4 %
Extraction speed 4.7 X
Track quality 100.0 %
Test CRC 83988551
Copy CRC 83988551
Cannot be verified as accurate (confidence 17) [E3528B66], AccurateRip returned [0C70DB89] (AR v2)
Copy OK
Track 18
Filename C:\Les Double Six - Les Double Six (2016) - FLAC\18 - Moanin' - La Complainte Du Bagnard.wav
Pre-gap length 0:00:01.00
Peak level 92.1 %
Extraction speed 4.9 X
Track quality 100.0 %
Test CRC 7DE6394F
Copy CRC 7DE6394F
Cannot be verified as accurate (confidence 17) [D517E991], AccurateRip returned [11A007FE] (AR v2)
Copy OK
Track 19
Filename C:\Les Double Six - Les Double Six (2016) - FLAC\19 - Fascinating Rhythm - Le Pas Qui Plaira.wav
Pre-gap length 0:00:01.00
Peak level 94.2 %
Extraction speed 3.2 X
Track quality 99.9 %
Test CRC DD3E9C3A
Copy CRC DD3E9C3A
Cannot be verified as accurate (confidence 17) [68650D46], AccurateRip returned [42D785B7] (AR v2)
Copy OK
Track 20
Filename C:\Les Double Six - Les Double Six (2016) - FLAC\20 - Walkin' - Un Tour Au Bois.wav
Pre-gap length 0:00:01.00
Peak level 89.0 %
Extraction speed 5.1 X
Track quality 99.9 %
Test CRC 3ED989F3
Copy CRC 3ED989F3
Cannot be verified as accurate (confidence 17) [902D04B2], AccurateRip returned [205A58BF] (AR v2)
Copy OK
No tracks could be verified as accurate
You may have a different pressing from the one(s) in the database
No errors occurred
End of status report
==== Log checksum A9926BA085EE35A82748428A9E98B207019FD2F830FB1FDECC9DA1AF4BF058D5 ====
 
Содержание индексной карты (.CUE)
REM GENRE Jazz
REM DATE 2016
REM DISCID 08127A14
REM COMMENT "ExactAudioCopy v1.0b3"
PERFORMER "Les Double Six"
TITLE "Les Double Six"
FILE "01 - For Lena And Lennie - En Flânant Dans Paris.wav" WAVE
TRACK 01 AUDIO
TITLE "For Lena And Lennie - En Flânant Dans Paris"
PERFORMER "Les Double Six"
ISRC FRZ056000020
PREGAP 00:00:32
INDEX 01 00:00:00
TRACK 02 AUDIO
TITLE "Rat Race - La Course Au Rat"
PERFORMER "Les Double Six"
ISRC FRZ056000030
INDEX 00 04:08:73
FILE "02 - Rat Race - La Course Au Rat.wav" WAVE
INDEX 01 00:00:00
TRACK 03 AUDIO
TITLE "Stockholm Sweetin' - Un Coin Merveilleux"
PERFORMER "Les Double Six"
ISRC FRZ056000040
INDEX 00 02:37:27
FILE "03 - Stockholm Sweetin' - Un Coin Merveilleux.wav" WAVE
INDEX 01 00:00:00
TRACK 04 AUDIO
TITLE "Boo's Bloos - Au Temps Des Indiens"
PERFORMER "Les Double Six"
ISRC FRZ056000050
INDEX 00 05:40:35
FILE "04 - Boo's Bloos - Au Temps Des Indiens.wav" WAVE
INDEX 01 00:00:00
TRACK 05 AUDIO
TITLE "Doodlin' - Tout En Dodelinant"
PERFORMER "Les Double Six"
ISRC FRZ056000060
INDEX 00 04:59:65
FILE "05 - Doodlin' - Tout En Dodelinant.wav" WAVE
INDEX 01 00:00:00
TRACK 06 AUDIO
TITLE "Meet Benny Bailey - Au Bout Du Fil"
PERFORMER "Les Double Six"
ISRC FRZ056000070
INDEX 00 04:48:45
FILE "06 - Meet Benny Bailey - Au Bout Du Fil.wav" WAVE
INDEX 01 00:00:00
TRACK 07 AUDIO
TITLE "Evening In Paris - Il Y A Fort Longtemps"
PERFORMER "Les Double Six"
ISRC FRZ056000080
INDEX 00 02:48:25
FILE "07 - Evening In Paris - Il Y A Fort Longtemps.wav" WAVE
INDEX 01 00:00:00
TRACK 08 AUDIO
TITLE "Count 'Em - T'as Foutu L'Camp"
PERFORMER "Les Double Six"
ISRC FRZ056000090
INDEX 00 04:25:38
FILE "08 - Count 'Em - T'as Foutu L'Camp.wav" WAVE
INDEX 01 00:00:00
TRACK 09 AUDIO
TITLE "Tickle Toe - Le Racket Et Les Balles"
PERFORMER "Les Double Six"
ISRC FRZ056200030
INDEX 00 05:12:65
FILE "09 - Tickle Toe - Le Racket Et Les Balles.wav" WAVE
INDEX 01 00:00:00
TRACK 10 AUDIO
TITLE "Early Autumn - Finalement L'automne Est Arrivé"
PERFORMER "Les Double Six"
ISRC FRZ056200040
INDEX 00 02:25:35
FILE "10 - Early Autumn - Finalement L'automne Est Arrivé.wav" WAVE
INDEX 01 00:00:00
TRACK 11 AUDIO
TITLE "Sweets - Les Quatre De L'opéra"
PERFORMER "Les Double Six"
ISRC FRZ056200050
INDEX 00 03:23:37
FILE "11 - Sweets - Les Quatre De L'opéra.wav" WAVE
INDEX 01 00:00:00
TRACK 12 AUDIO
TITLE "Naima - Naima"
PERFORMER "Les Double Six"
ISRC FRZ056200060
INDEX 00 02:39:73
FILE "12 - Naima - Naima.wav" WAVE
INDEX 01 00:00:00
TRACK 13 AUDIO
TITLE "Westwood Walk - Histoire De Baryton"
PERFORMER "Les Double Six"
ISRC FRZ056200070
INDEX 00 04:14:42
FILE "13 - Westwood Walk - Histoire De Baryton.wav" WAVE
INDEX 01 00:00:00
TRACK 14 AUDIO
TITLE "A Night In Tunisia - Le Tapis Volant"
PERFORMER "Les Double Six"
ISRC FRZ056200080
INDEX 00 02:41:35
FILE "14 - A Night In Tunisia - Le Tapis Volant.wav" WAVE
INDEX 01 00:00:00
TRACK 15 AUDIO
TITLE "A Ballad - Une Ballade"
PERFORMER "Les Double Six"
ISRC FRZ056200090
INDEX 00 03:00:20
FILE "15 - A Ballad - Une Ballade.wav" WAVE
INDEX 01 00:00:00
TRACK 16 AUDIO
TITLE "Scrapple From The Apple - A Bâtons Rompus"
PERFORMER "Les Double Six"
ISRC FRZ056200100
INDEX 00 03:01:45
FILE "16 - Scrapple From The Apple - A Bâtons Rompus.wav" WAVE
INDEX 01 00:00:00
TRACK 17 AUDIO
TITLE "Boplicity - La Légende Du Troubadour"
PERFORMER "Les Double Six"
ISRC FRZ056200110
INDEX 00 02:52:53
FILE "17 - Boplicity - La Légende Du Troubadour.wav" WAVE
INDEX 01 00:00:00
TRACK 18 AUDIO
TITLE "Moanin' - La Complainte Du Bagnard"
PERFORMER "Les Double Six"
ISRC FRZ056200120
INDEX 00 03:00:35
FILE "18 - Moanin' - La Complainte Du Bagnard.wav" WAVE
INDEX 01 00:00:00
TRACK 19 AUDIO
TITLE "Fascinating Rhythm - Le Pas Qui Plaira"
PERFORMER "Les Double Six"
ISRC FRZ056200130
INDEX 00 03:10:22
FILE "19 - Fascinating Rhythm - Le Pas Qui Plaira.wav" WAVE
INDEX 01 00:00:00
TRACK 20 AUDIO
TITLE "Walkin' - Un Tour Au Bois"
PERFORMER "Les Double Six"
ISRC FRZ059900380
INDEX 00 02:39:50
FILE "20 - Walkin' - Un Tour Au Bois.wav" WAVE
INDEX 01 00:00:00
 
AccurateRip
CUE Corrector v. 8.3.4 / b. 861 (Jun. 07, 2018)
AccurateRip ID [00387b4a-0331c3e4-0712c614] disk not present in database.
Log created at June 16, 2018 12:38:59
 
auCDtect
CUE Corrector v. 8.3.4 / b. 861 (Jun. 07, 2018)
————————————————————————————————————————————————————————————————————————
Les Double Six / Les Double Six
CUE file: Les Double Six (2016)_correct.cue
Audio files:
01 - For Lena And Lennie - En Flânant Dans Paris.flac [04:09.973; FLAC • 856 kbps • 16 bit \ 44100 Hz • stereo; 25.54 MB (26 778 321 B)]
02 - Rat Race - La Course Au Rat.flac [02:38.360; FLAC • 922 kbps • 16 bit \ 44100 Hz • stereo; 17.42 MB (18 266 639 B)]
03 - Stockholm Sweetin' - Un Coin Merveilleux.flac [05:41.467; FLAC • 817 kbps • 16 bit \ 44100 Hz • stereo; 33.29 MB (34 905 896 B)]
04 - Boo's Bloos - Au Temps Des Indiens.flac [05:00.867; FLAC • 803 kbps • 16 bit \ 44100 Hz • stereo; 28.81 MB (30 207 543 B)]
05 - Doodlin' - Tout En Dodelinant.flac [04:49.600; FLAC • 913 kbps • 16 bit \ 44100 Hz • stereo; 31.53 MB (33 061 999 B)]
06 - Meet Benny Bailey - Au Bout Du Fil.flac [02:49.333; FLAC • 875 kbps • 16 bit \ 44100 Hz • stereo; 17.68 MB (18 537 607 B)]
07 - Evening In Paris - Il Y A Fort Longtemps.flac [04:26.507; FLAC • 775 kbps • 16 bit \ 44100 Hz • stereo; 24.63 MB (25 830 659 B)]
08 - Count 'Em - T'as Foutu L'Camp.flac [05:13.867; FLAC • 844 kbps • 16 bit \ 44100 Hz • stereo; 31.59 MB (33 124 510 B)]
09 - Tickle Toe - Le Racket Et Les Balles.flac [02:26.467; FLAC • 875 kbps • 16 bit \ 44100 Hz • stereo; 15.28 MB (16 021 907 B)]
10 - Early Autumn - Finalement L'automne Est Arrivé.flac [03:24.493; FLAC • 878 kbps • 16 bit \ 44100 Hz • stereo; 21.42 MB (22 463 018 B)]
11 - Sweets - Les Quatre De L'opéra.flac [02:40.973; FLAC • 925 kbps • 16 bit \ 44100 Hz • stereo; 17.76 MB (18 624 973 B)]
12 - Naima - Naima.flac [04:15.560; FLAC • 821 kbps • 16 bit \ 44100 Hz • stereo; 25.02 MB (26 234 888 B)]
13 - Westwood Walk - Histoire De Baryton.flac [02:42.467; FLAC • 870 kbps • 16 bit \ 44100 Hz • stereo; 16.85 MB (17 669 929 B)]
14 - A Night In Tunisia - Le Tapis Volant.flac [03:01.267; FLAC • 894 kbps • 16 bit \ 44100 Hz • stereo; 19.33 MB (20 271 975 B)]
15 - A Ballad - Une Ballade.flac [03:02.600; FLAC • 855 kbps • 16 bit \ 44100 Hz • stereo; 18.63 MB (19 531 692 B)]
01 - For Lena And Lennie - En Flânant Dans Paris.flac [04:09.973; FLAC • 856 kbps • 16 bit \ 44100 Hz • stereo; 25.54 MB (26 778 321 B)]
17 - Boplicity - La Légende Du Troubadour.flac [03:01.467; FLAC • 910 kbps • 16 bit \ 44100 Hz • stereo; 19.70 MB (20 659 924 B)]
18 - Moanin' - La Complainte Du Bagnard.flac [03:11.293; FLAC • 892 kbps • 16 bit \ 44100 Hz • stereo; 20.36 MB (21 350 749 B)]
19 - Fascinating Rhythm - Le Pas Qui Plaira.flac [02:40.667; FLAC • 894 kbps • 16 bit \ 44100 Hz • stereo; 17.14 MB (17 968 206 B)]
20 - Walkin' - Un Tour Au Bois.flac [10:39.067; FLAC • 458 kbps • 16 bit \ 44100 Hz • stereo; 34.92 MB (36 617 878 B)]
Accuracy: -m0
Track 01 - For Lena And Lennie - En Flânant Dans Paris - 99% CDDA [04:09:73]
Track 02 - Rat Race - La Course Au Rat - 100% CDDA [02:38:27]
Track 03 - Stockholm Sweetin' - Un Coin Merveilleux - 99% CDDA [05:41:35]
Track 04 - Boo's Bloos - Au Temps Des Indiens - 99% CDDA [05:00:65]
Track 05 - Doodlin' - Tout En Dodelinant - 100% CDDA [04:49:45]
Track 06 - Meet Benny Bailey - Au Bout Du Fil - 99% CDDA [02:49:25]
Track 07 - Evening In Paris - Il Y A Fort Longtemps - 100% CDDA [04:26:38]
Track 08 - Count 'Em - T'as Foutu L'Camp - 100% CDDA [05:13:65]
Track 09 - Tickle Toe - Le Racket Et Les Balles - 100% CDDA [02:26:35]
Track 10 - Early Autumn - Finalement L'automne Est Arrivé - 100% CDDA [03:24:37]
Track 11 - Sweets - Les Quatre De L'opéra - 99% CDDA [02:40:73]
Track 12 - Naima - Naima - 100% CDDA [04:15:42]
Track 13 - Westwood Walk - Histoire De Baryton - 86% CDDA [02:42:35]
Track 14 - A Night In Tunisia - Le Tapis Volant - 100% CDDA [03:01:20]
Track 15 - A Ballad - Une Ballade - 100% CDDA [03:02:45]
Track 16 - Scrapple From The Apple - A Bâtons Rompus - 99% CDDA [04:09:73]
Track 17 - Boplicity - La Légende Du Troubadour - 100% CDDA [03:01:35]
Track 18 - Moanin' - La Complainte Du Bagnard - 100% CDDA [03:11:22]
Track 19 - Fascinating Rhythm - Le Pas Qui Plaira - 100% CDDA [02:40:50]
Track 20 - Walkin' - Un Tour Au Bois - 100% CDDA [10:39:05]
————— Summary: —————
These tracks looks like CDDA with probability 100%.
————————————————————————————————————————————————————————————————————————
ANALYZER:
auCDtect: CD records authenticity detector, version 0.8.2
Copyright (c) 2004 Oleg Berngardt. All rights reserved.
Copyright (c) 2004 Alexander Djourik. All rights reserved.
Time elapsed: 3 m 31 s
Log created at June 16, 2018 12:42:54
=== F82A347F400B4776B56F9428CC903CB878A110BE105C8FF426FA3C65761BB144 ===
 
Скриншот спектра частот
 
Об альбоме (сборнике)
Цитата:
2 albums in 1 :
- Les Double Six Meets Quincy Jones (1960) #1-8
- Les Double Six (1962) #9-19
- Previously unreleased #20
Mastered at La Source Mastering
По содержанию совпадает с этим диском, но звучит совершенно по-другому.
Приватный:
Нет (DHT включён)
Размер:
455.95 Мб (478,098,761 байт) » файлов: 24
Участники:
0 раздают, 0 качают (0 участников всего)
Внешние участники:
--- [ Обновить ]
07:34
13
Нет комментариев. Ваш будет первым!