Поиск

(Vocal Jazz, Funk, Soul) [CD] Marilyn Scott - Without Warning! - 1983 (2012 Japan Edition), FLAC (tracks+.cue), lossless

(Vocal Jazz, Funk, Soul) [CD] Marilyn Scott - Without Warning! - 1983 (2012 Japan Edition), FLAC (tracks+.cue), lossless
Треклист:
Marilyn Scott - Without Warning!
Жанр: Vocal Jazz, Funk, Soul
Носитель: CD
Страна-производитель диска (релиза): Япония
Год издания: 1983 (2012)
Издатель (лейбл): Mercury/Universal
Номер по каталогу: UICY-15165
Страна исполнителя (группы): США
Аудиокодек: FLAC (*.flac)
Тип рипа: tracks+.cue
Битрейт аудио: lossless
Продолжительность: 41:20
Источник (релизер): justy
Наличие сканов в содержимом раздачи: нет
Треклист:
01. Only You (3:45)
02. First Time (3:17)
03. Where Is the Key (4:12)
04. You Can Do It (4:38)
05. Say Goodbye (4:31)
06. 10 X 10 (3:48)
07. If You Let Me Love You (4:19)
08. This Side of the Rainbow (4:40)
09. Hold On (3:31)
10. I'll Be Lovin' You (4:39)
 
Лог создания рипа
Exact Audio Copy V1.1 from 23. June 2015
EAC extraction logfile from 14. November 2015, 23:36
Marilyn Scott / Without Warning (2012 Remastered)
Used drive : PIONEER BD-RW BDR-XD05 Adapter: 1 ID: 1
Read mode : Secure
Utilize accurate stream : Yes
Defeat audio cache : Yes
Make use of C2 pointers : No
Read offset correction : 667
Overread into Lead-In and Lead-Out : No
Fill up missing offset samples with silence : Yes
Delete leading and trailing silent blocks : No
Null samples used in CRC calculations : Yes
Used interface : Native Win32 interface for Win NT & 2000
Gap handling : Appended to previous track
Used output format : User Defined Encoder
Selected bitrate : 1024 kBit/s
Quality : High
Add ID3 tag : No
Command line compressor : C:\Program Files (x86)\Exact Audio Copy\Flac\flac.exe
Additional command line options : -8 -V -T "ARTIST=%artist%" -T "TITLE=%title%" -T "ALBUM=%albumtitle%" -T "DATE=%year%" -T "TRACKNUMBER=%tracknr%" -T "GENRE=%genre%" -T "PERFORMER=%albuminterpret%" -T "COMPOSER=%composer%" %haslyrics%--tag-from-file=LYRICS="%lyricsfile%"%haslyrics% -T "ALBUMARTIST=%albumartist%" -T "DISCNUMBER=%cdnumber%" -T "TOTALDISCS=%totalcds%" -T "TOTALTRACKS=%numtracks%" -T "COMMENT=%comment%" %source% -o %dest%
TOC of the extracted CD
Track | Start | Length | Start sector | End sector
---------------------------------------------------------
1 | 0:00.00 | 3:44.60 | 0 | 16859
2 | 3:44.60 | 3:16.62 | 16860 | 31621
3 | 7:01.47 | 4:11.64 | 31622 | 50510
4 | 11:13.36 | 4:37.72 | 50511 | 71357
5 | 15:51.33 | 4:30.42 | 71358 | 91649
6 | 20:22.00 | 3:48.31 | 91650 | 108780
7 | 24:10.31 | 4:19.08 | 108781 | 128213
8 | 28:29.39 | 4:40.35 | 128214 | 149248
9 | 33:09.74 | 3:31.27 | 149249 | 165100
10 | 36:41.26 | 4:38.46 | 165101 | 185996
Track 1
Filename C:\EACRips\01 Only You.wav
Pre-gap length 0:00:02.00
Peak level 99.8 %
Extraction speed 2.7 X
Track quality 100.0 %
Test CRC 576D1EE8
Copy CRC 576D1EE8
Cannot be verified as accurate (confidence 3) [92256E4A], AccurateRip returned [42790B63] (AR v2)
Copy OK
Track 2
Filename C:\EACRips\02 First Time.wav
Pre-gap length 0:00:01.09
Peak level 99.8 %
Extraction speed 2.9 X
Track quality 100.0 %
Test CRC 2540BED9
Copy CRC 2540BED9
Cannot be verified as accurate (confidence 3) [97C8FB09], AccurateRip returned [C88024CA] (AR v2)
Copy OK
Track 3
Filename C:\EACRips\03 Where Is The Key.wav
Pre-gap length 0:00:01.77
Peak level 99.8 %
Extraction speed 3.3 X
Track quality 100.0 %
Test CRC 06505876
Copy CRC 06505876
Cannot be verified as accurate (confidence 3) [BBA13B1F], AccurateRip returned [B22BDDDC] (AR v2)
Copy OK
Track 4
Filename C:\EACRips\04 You Can Do It.wav
Pre-gap length 0:00:01.62
Peak level 99.8 %
Extraction speed 3.6 X
Track quality 100.0 %
Test CRC F3FD0F43
Copy CRC F3FD0F43
Cannot be verified as accurate (confidence 3) [717B1772], AccurateRip returned [A1ADCA01] (AR v2)
Copy OK
Track 5
Filename C:\EACRips\05 Say Goodbye.wav
Pre-gap length 0:00:02.61
Peak level 99.8 %
Extraction speed 3.4 X
Track quality 99.9 %
Test CRC 701F0C6E
Copy CRC 701F0C6E
Cannot be verified as accurate (confidence 3) [A4BA0C48], AccurateRip returned [103CE2D0] (AR v2)
Copy OK
Track 6
Filename C:\EACRips\06 10 X 10.wav
Pre-gap length 0:00:02.40
Peak level 99.8 %
Extraction speed 3.5 X
Track quality 99.9 %
Test CRC 0B9FECB5
Copy CRC 0B9FECB5
Cannot be verified as accurate (confidence 3) [D3157C9A], AccurateRip returned [DC54A134] (AR v2)
Copy OK
Track 7
Filename C:\EACRips\07 If You Let Me Love You.wav
Peak level 99.8 %
Extraction speed 4.2 X
Track quality 100.0 %
Test CRC 3E2DA49D
Copy CRC 3E2DA49D
Cannot be verified as accurate (confidence 3) [D09B55EC], AccurateRip returned [2E158FDE] (AR v2)
Copy OK
Track 8
Filename C:\EACRips\08 This Side Of The Rainbow.wav
Peak level 99.8 %
Extraction speed 4.4 X
Track quality 100.0 %
Test CRC BF0AF378
Copy CRC BF0AF378
Cannot be verified as accurate (confidence 3) [B1C4D869], AccurateRip returned [A21FCCE9] (AR v2)
Copy OK
Track 9
Filename C:\EACRips\09 Hold On.wav
Peak level 99.8 %
Extraction speed 4.4 X
Track quality 100.0 %
Test CRC C317FA3C
Copy CRC C317FA3C
Cannot be verified as accurate (confidence 3) [3FD4DC99], AccurateRip returned [E6643300] (AR v2)
Copy OK
Track 10
Filename C:\EACRips\10 I'll Be Lovin' You.wav
Peak level 99.8 %
Extraction speed 4.7 X
Track quality 100.0 %
Test CRC 0C5D1723
Copy CRC 0C5D1723
Cannot be verified as accurate (confidence 3) [CB2CD3F6], AccurateRip returned [ACDF6E30] (AR v2)
Copy OK
No tracks could be verified as accurate
You may have a different pressing from the one(s) in the database
No errors occurred
End of status report
---- CUETools DB Plugin V2.1.6
[CTDB TOCID: eOA6U8JbJIOenU4_n__V.94Gtco-] found
Submit result: eOA6U8JbJIOenU4_n__V.94Gtco- has been confirmed
Track | CTDB Status
1 | (1/1) Accurately ripped
2 | (1/1) Accurately ripped
3 | (1/1) Accurately ripped
4 | (1/1) Accurately ripped
5 | (1/1) Accurately ripped
6 | (1/1) Accurately ripped
7 | (1/1) Accurately ripped
8 | (1/1) Accurately ripped
9 | (1/1) Accurately ripped
10 | (1/1) Accurately ripped
==== Log checksum 8A7E750B9BD24CC268AE0C31E3C58855CDE29AB448D33423F6583245FAA9B8EC ====
 
Содержание индексной карты (.CUE)
REM GENRE Soul
REM DATE 1983
REM DISCID 7209AF0A
REM COMMENT "ExactAudioCopy v1.1"
CATALOG 0602498408346
PERFORMER "Marilyn Scott"
TITLE "Without Warning!"
FILE "01 - Only You.wav" WAVE
TRACK 01 AUDIO
TITLE "Only You"
PERFORMER "Marilyn Scott"
INDEX 01 00:00:00
TRACK 02 AUDIO
TITLE "First Time"
PERFORMER "Marilyn Scott"
INDEX 00 03:43:53
FILE "02 - First Time.wav" WAVE
INDEX 01 00:00:00
TRACK 03 AUDIO
TITLE "Where Is the Key"
PERFORMER "Marilyn Scott"
INDEX 00 03:15:04
FILE "03 - Where Is the Key.wav" WAVE
INDEX 01 00:00:00
TRACK 04 AUDIO
TITLE "You Can Do It"
PERFORMER "Marilyn Scott"
INDEX 00 04:10:17
FILE "04 - You Can Do It.wav" WAVE
INDEX 01 00:00:00
TRACK 05 AUDIO
TITLE "Say Goodbye"
PERFORMER "Marilyn Scott"
INDEX 00 04:35:26
FILE "05 - Say Goodbye.wav" WAVE
INDEX 01 00:00:00
TRACK 06 AUDIO
TITLE "10 X 10"
PERFORMER "Marilyn Scott"
INDEX 00 04:28:12
FILE "06 - 10 X 10.wav" WAVE
INDEX 01 00:00:00
FILE "07 - If You Let Me Love You.wav" WAVE
TRACK 07 AUDIO
TITLE "If You Let Me Love You"
PERFORMER "Marilyn Scott"
INDEX 01 00:00:00
FILE "08 - This Side of the Rainbow.wav" WAVE
TRACK 08 AUDIO
TITLE "This Side of the Rainbow"
PERFORMER "Marilyn Scott"
INDEX 01 00:00:00
FILE "09 - Hold On.wav" WAVE
TRACK 09 AUDIO
TITLE "Hold On"
PERFORMER "Marilyn Scott"
INDEX 01 00:00:00
FILE "10 - I'll Be Lovin' You.wav" WAVE
TRACK 10 AUDIO
TITLE "I'll Be Lovin' You"
PERFORMER "Marilyn Scott"
INDEX 01 00:00:00
 
Отчет CUETools
[CUETools log; Date: 22.07.2018 11:04:51; Version: 2.1.5]
[CTDB TOCID: eOA6U8JbJIOenU4_n__V.94Gtco-] found.
Track | CTDB Status
1 | (6/6) Accurately ripped
2 | (6/6) Accurately ripped
3 | (6/6) Accurately ripped
4 | (6/6) Accurately ripped
5 | (6/6) Accurately ripped
6 | (6/6) Accurately ripped
7 | (5/6) Accurately ripped
8 | (5/6) Accurately ripped
9 | (6/6) Accurately ripped
10 | (5/6) Accurately ripped
[AccurateRip ID: 000f3faf-007b0ece-7209af0a] found.
Track [ CRC | V2 ] Status
01 [ffeb01f9|92256e4a] (0+0/5) No match
02 [3e69daaa|97c8fb09] (0+0/5) No match
03 [5c3c37cf|bba13b1f] (0+0/5) No match
04 [d5c75fb7|717b1772] (0+0/5) No match
05 [63dc519a|a4ba0c48] (0+0/5) No match
06 [8e868f6c|d3157c9a] (0+0/5) No match
07 [e4cedae6|d09b55ec] (0+0/4) No match
08 [ba03d9c1|b1c4d869] (0+0/4) No match
09 [8081569d|3fd4dc99] (0+0/5) No match
10 [1d0ce0b6|cb2cd3f6] (0+0/4) No match
Offsetted by 25:
01 [b785b339] (0/5) No match (V2 was not tested)
02 [7578c98a] (0/5) No match (V2 was not tested)
03 [5aea47e9] (0/5) No match (V2 was not tested)
04 [0eea9520] (0/5) No match (V2 was not tested)
05 [d81fe53c] (0/5) No match (V2 was not tested)
06 [98a6aa80] (0/5) No match (V2 was not tested)
07 [3f1a8ed1] (0/4) No match (V2 was not tested)
08 [a11af383] (0/4) No match (V2 was not tested)
09 [259a02b1] (0/5) No match (V2 was not tested)
10 [fe5aa02a] (0/4) No match (V2 was not tested)
Track Peak [ CRC32 ] [W/O NULL] [ LOG ]
-- 99,8 [0B843040] [66E62910]
01 99,8 [576D1EE8] [AEEE0E52] CRC32
02 99,8 [2540BED9] [9E8B7DDB] CRC32
03 99,8 [06505876] [15C4BA9F] CRC32
04 99,8 [F3FD0F43] [1D88746A] CRC32
05 99,8 [701F0C6E] [9B72BEA2] CRC32
06 99,8 [0B9FECB5] [EDB39E55] CRC32
07 99,8 [3E2DA49D] [F8D4B6EC] CRC32
08 99,8 [BF0AF378] [E75D32FE] CRC32
09 99,8 [C317FA3C] [E181FE70] CRC32
10 99,8 [0C5D1723] [1E44DD7A] CRC32
Скачивание доступно после регистрации!!
Приватный:
Нет (DHT включён)
Размер:
280.23 Мб (293,838,818 байт) » файлов: 17
Участники:
0 раздают, 0 качают (0 участников всего)
Внешние участники:
8 раздают, 2 качают (10 участников всего) [ Обновить ]
07:44
17
Нет комментариев. Ваш будет первым!