Поиск

(Vocal Jazz) [CD] Marilyn Scott - Nightcap - 2004, FLAC (tracks+.cue), lossless

(Vocal Jazz) [CD] Marilyn Scott - Nightcap - 2004, FLAC (tracks+.cue), lossless
Треклист:
Marilyn Scott - Nightcap
Жанр: Vocal Jazz
Носитель: CD
Страна-производитель диска (релиза): США
Год издания: 2004
Издатель (лейбл): Prana Entertainment
Номер по каталогу: 6-98268-0005-2
Аудиокодек: FLAC (*.flac)
Тип рипа: tracks+.cue
Битрейт аудио: lossless
Продолжительность: 40:06
Источник (релизер): fwhitfie
Наличие сканов в содержимом раздачи: нет
Треклист:
01. I Wished on a Moon (Parker-Rainger) - 5:03
02. Smile (Chaplin-Turner-Parsons) - 4:01
03. Here's That Rainy Day (Burke-Van Heusen) - 4:59
04. Stardust (Carmichael-Parish) - 5:28
05. Isn't This a Lovely Day (Berlin) - 4:04
06. Here's to Life (Butler-Molinary) - 5:16
07. Yesterdays (Kern-Harbach) - 5:05
08. If It's the Last Thing I Do (Cahn-Chaplin) - 6:10
Состав:
Marilyn Scott - vocals
Dori Caymmi - guitar, vocals
Ray Fuller, Dean Parks - guitar
George Duke - keyboards
Brian Bromberg - bass
Vinnie Colaiuta - drums
Lenny Castro - percussion
Brandon Fields - alto saxophone
Dan Higgins - tenor saxophone, flute
Rick Baptist - trumpet
 
Лог создания рипа
Exact Audio Copy V1.3 from 2. September 2016
EAC extraction logfile from 6. January 2017, 16:16
Marilyn Scott / Nightcap
Used drive : TSSTcorpCDDVDW SH-224DB Adapter: 1 ID: 1
Read mode : Secure
Utilize accurate stream : Yes
Defeat audio cache : Yes
Make use of C2 pointers : No
Read offset correction : 6
Overread into Lead-In and Lead-Out : No
Fill up missing offset samples with silence : Yes
Delete leading and trailing silent blocks : No
Null samples used in CRC calculations : Yes
Used interface : Native Win32 interface for Win NT & 2000
Gap handling : Appended to previous track
Used output format : User Defined Encoder
Selected bitrate : 896 kBit/s
Quality : High
Add ID3 tag : No
Command line compressor : C:\Program Files (x86)\Exact Audio Copy\FLAC\FLAC.EXE
Additional command line options : -8 -V -T "ARTIST=%artist%" -T "TITLE=%title%" -T "ALBUM=%albumtitle%" -T "DATE=%year%" -T "TRACKNUMBER=%tracknr%" -T "GENRE=%genre%" -T "COMMENT=%comment%" -T "BAND=%albuminterpret%" -T "ALBUMARTIST=%albuminterpret%" -T "COMPOSER=%composer%" %haslyrics%--tag-from-file=LYRICS="%lyricsfile%"%haslyrics% -T "DISCNUMBER=%cdnumber%" -T "TOTALDISCS=%totalcds%" -T "TOTALTRACKS=%numtracks%" %hascover%--picture="%coverfile%"%hascover% %source% -o %dest%
TOC of the extracted CD
Track | Start | Length | Start sector | End sector
---------------------------------------------------------
1 | 0:00.00 | 5:02.54 | 0 | 22703
2 | 5:02.54 | 4:00.69 | 22704 | 40772
3 | 9:03.48 | 4:59.23 | 40773 | 63220
4 | 14:02.71 | 5:28.08 | 63221 | 87828
5 | 19:31.04 | 4:04.20 | 87829 | 106148
6 | 23:35.24 | 5:15.72 | 106149 | 129845
7 | 28:51.21 | 5:04.62 | 129846 | 152707
8 | 33:56.08 | 6:10.14 | 152708 | 180471
Track 1
Filename D:\Rips\01 - I Wished On A Moon.wav
Pre-gap length 0:00:02.00
Peak level 100.0 %
Extraction speed 2.0 X
Track quality 100.0 %
Test CRC F910991F
Copy CRC F910991F
Accurately ripped (confidence 17) [D4F058A8] (AR v2)
Copy OK
Track 2
Filename D:\Rips\02 - Smile.wav
Pre-gap length 0:00:00.82
Peak level 100.0 %
Extraction speed 2.2 X
Track quality 100.0 %
Test CRC D0816C88
Copy CRC D0816C88
Accurately ripped (confidence 17) [642443BD] (AR v2)
Copy OK
Track 3
Filename D:\Rips\03 - Here's That Rainy Day.wav
Pre-gap length 0:00:00.13
Peak level 100.0 %
Extraction speed 2.4 X
Track quality 100.0 %
Test CRC 35B4E851
Copy CRC 35B4E851
Accurately ripped (confidence 17) [B7D5580B] (AR v2)
Copy OK
Track 4
Filename D:\Rips\04 - Stardust.wav
Pre-gap length 0:00:00.42
Peak level 100.0 %
Extraction speed 2.6 X
Track quality 100.0 %
Test CRC 757C93ED
Copy CRC 757C93ED
Accurately ripped (confidence 17) [44109B0C] (AR v2)
Copy OK
Track 5
Filename D:\Rips\05 - Isn't This A Lovely Day.wav
Pre-gap length 0:00:00.98
Peak level 100.0 %
Extraction speed 2.7 X
Track quality 100.0 %
Test CRC 5ABA7DE7
Copy CRC 5ABA7DE7
Accurately ripped (confidence 17) [8D37D144] (AR v2)
Copy OK
Track 6
Filename D:\Rips\06 - Here's To Life.wav
Pre-gap length 0:00:00.85
Peak level 100.0 %
Extraction speed 3.0 X
Track quality 100.0 %
Test CRC F6389988
Copy CRC F6389988
Accurately ripped (confidence 17) [BBDBA7EF] (AR v2)
Copy OK
Track 7
Filename D:\Rips\07 - Yesterdays.wav
Pre-gap length 0:00:06.14
Peak level 100.0 %
Extraction speed 3.1 X
Track quality 100.0 %
Test CRC AFFFAB8D
Copy CRC AFFFAB8D
Accurately ripped (confidence 17) [4D92C2A8] (AR v2)
Copy OK
Track 8
Filename D:\Rips\08 - If It's The Last Thing I Do.wav
Pre-gap length 0:00:01.01
Peak level 100.0 %
Extraction speed 2.8 X
Track quality 99.9 %
Test CRC 7910CD7A
Copy CRC 7910CD7A
Accurately ripped (confidence 16) [FDA3246F] (AR v2)
Copy OK
All tracks accurately ripped
No errors occurred
End of status report
---- CUETools DB Plugin V2.1.6
[CTDB TOCID: z_528WeUEIkVuRX.EiH6gV1koYI-] found
Submit result: z_528WeUEIkVuRX.EiH6gV1koYI- has been confirmed
Track | CTDB Status
1 | (13/13) Accurately ripped
2 | (13/13) Accurately ripped
3 | (13/13) Accurately ripped
4 | (13/13) Accurately ripped
5 | (13/13) Accurately ripped
6 | (13/13) Accurately ripped
7 | (13/13) Accurately ripped
8 | (11/13) Accurately ripped
==== Log checksum 338068E33ED7B6B58DC5DD28A6997F8ABB145193CCF89F4BF8A82AB71BC3EEB9 ====
 
Содержание индексной карты (.CUE)
REM GENRE Jazz
REM DATE 2004
REM DISCID 5B096608
REM COMMENT "ExactAudioCopy v1.3"
PERFORMER "Marilyn Scott"
TITLE "Nightcap"
FILE "01 - I Wished on a Moon.wav" WAVE
TRACK 01 AUDIO
TITLE "I Wished on a Moon"
PERFORMER "Marilyn Scott"
INDEX 01 00:00:00
TRACK 02 AUDIO
TITLE "Smile"
PERFORMER "Marilyn Scott"
INDEX 00 05:01:67
FILE "02 - Smile.wav" WAVE
INDEX 01 00:00:00
TRACK 03 AUDIO
TITLE "Here's That Rainy Day"
PERFORMER "Marilyn Scott"
INDEX 00 04:00:59
FILE "03 - Here's That Rainy Day.wav" WAVE
INDEX 01 00:00:00
TRACK 04 AUDIO
TITLE "Stardust"
PERFORMER "Marilyn Scott"
INDEX 00 04:58:66
FILE "04 - Stardust.wav" WAVE
INDEX 01 00:00:00
TRACK 05 AUDIO
TITLE "Isn't This a Lovely Day"
PERFORMER "Marilyn Scott"
INDEX 00 05:27:09
FILE "05 - Isn't This a Lovely Day.wav" WAVE
INDEX 01 00:00:00
TRACK 06 AUDIO
TITLE "Here's to Life"
PERFORMER "Marilyn Scott"
INDEX 00 04:03:31
FILE "06 - Here's to Life.wav" WAVE
INDEX 01 00:00:00
TRACK 07 AUDIO
TITLE "Yesterdays"
PERFORMER "Marilyn Scott"
INDEX 00 05:09:61
FILE "07 - Yesterdays.wav" WAVE
INDEX 01 00:00:00
TRACK 08 AUDIO
TITLE "If It's the Last Thing I Do"
PERFORMER "Marilyn Scott"
INDEX 00 05:03:61
FILE "08 - If It's the Last Thing I Do.wav" WAVE
INDEX 01 00:00:00
 
Отчет CUETools
[CUETools log; Date: 22.07.2018 12:20:41; Version: 2.1.5]
[CTDB TOCID: z_528WeUEIkVuRX.EiH6gV1koYI-] found.
Track | CTDB Status
1 | (20/20) Accurately ripped
2 | (20/20) Accurately ripped
3 | (20/20) Accurately ripped
4 | (20/20) Accurately ripped
5 | (20/20) Accurately ripped
6 | (20/20) Accurately ripped
7 | (20/20) Accurately ripped
8 | (18/20) Accurately ripped
[AccurateRip ID: 000bf556-0050219d-5b096608] found.
Track [ CRC | V2 ] Status
01 [e7e101b5|d4f058a8] (13+18/37) Accurately ripped
02 [83ac7c85|642443bd] (13+18/37) Accurately ripped
03 [2c94d3f4|b7d5580b] (13+18/37) Accurately ripped
04 [d4c75bb4|44109b0c] (13+18/37) Accurately ripped
05 [2f93fe32|8d37d144] (13+18/37) Accurately ripped
06 [fe239c9c|bbdba7ef] (13+18/37) Accurately ripped
07 [22aeaf92|4d92c2a8] (13+18/37) Accurately ripped
08 [a0f42014|fda3246f] (13+17/35) Accurately ripped
Offsetted by -667:
01 [56fae349] (03/37) Accurately ripped
02 [e7fef421] (03/37) Accurately ripped
03 [603d022e] (03/37) Accurately ripped
04 [60411c41] (03/37) Accurately ripped
05 [ade892a1] (03/37) Accurately ripped
06 [6e997295] (03/37) Accurately ripped
07 [dd91e5cc] (03/37) Accurately ripped
08 [75eb4162] (02/35) Accurately ripped
Track Peak [ CRC32 ] [W/O NULL] [ LOG ]
-- 100,0 [A21AC3B8] [9313C621]
01 100,0 [F910991F] [C1754892] CRC32
02 100,0 [D0816C88] [A1B0ACA5] CRC32
03 100,0 [35B4E851] [E916B4F4] CRC32
04 100,0 [757C93ED] [4A5D6080] CRC32
05 100,0 [5ABA7DE7] [B8D0C46C] CRC32
06 100,0 [F6389988] [06B1BFE2] CRC32
07 100,0 [AFFFAB8D] [E43C1832] CRC32
08 100,0 [7910CD7A] [2D20B673] CRC32
 
AllMusic Review by Jonathan Widran
Over the course of seven previous recordings, while establishing herself as a premier adult contemporary singer/songwriter, Marilyn Scott has carried on a quiet but steady love affair with the Great American Songbook. Her rendition of "The Look of Love" (from 1998's Avenues of Love) earned producer George Duke a Grammy nomination for Best Arrangement with vocals. Earlier recordings feature stunning versions of the classics "Let Me Be the One," "The Summer Knows," and "You Don't Know Me." On this much too short but still very satisfying collection, Scott's flirtation with pop standards evolves beautifully into a life-changing romance with the help of some of Los Angeles' most acclaimed studio musicians and jazz performers -- Brandon Fields (sax), Rick Baptist (trumpet), Ray Fuller (guitar), Brian Bromberg (upright bass), Dan Higgins (flute), Brazilian guitarist Dori Caymmi, and Vinnie Colaiuta (drums). Nightcap also marks the first time that frequent collaborator Duke has produced and arranged an entire Scott recording. The choices are inspired, from the coolly swinging Brazilian romance of "I Wished on the Moon" (from the Billie Holiday catalog) to the tender trio arrangement of "Smile" and understated poetry of "Stardust" (featuring Duke on piano and Rhodes). Scott skips through a nice variety of moods -- the heartfelt melancholy of "Here's that Rainy Day" balancing the optimistic "Isn't This a Lovely Day," with her bright vocal cruising gracefully over Bromberg's throbbing bass. The soulful big-band brass textures on "If It's the Last Thing I Do" adds a classy closing touch.
На замену http://rutracker.org/forum/viewtopic.php?t=2955675
Скачивание доступно после регистрации!!
Приватный:
Нет (DHT включён)
Размер:
240.33 Мб (252,003,341 байт) » файлов: 15
Участники:
0 раздают, 0 качают (0 участников всего)
Внешние участники:
3 раздают, 1 качают (4 участников всего) [ Обновить ]
07:45
13
Нет комментариев. Ваш будет первым!