Поиск

(Vocal Jazz) [CD] Rosemary Clooney - Demi-Centennial - 1995, FLAC (tracks+.cue), lossless

(Vocal Jazz) [CD] Rosemary Clooney - Demi-Centennial - 1995, FLAC (tracks+.cue), lossless
Треклист:
Rosemary Clooney - Demi-Centennial
Жанр: Vocal Jazz
Носитель: CD
Страна-производитель диска (релиза): США
Год издания: 1995
Издатель (лейбл): Concord Jazz
Номер по каталогу: CCD-4633
Аудиокодек: FLAC (*.flac)
Тип рипа: tracks+.cue
Битрейт аудио: lossless
Продолжительность: 61:43
Источник (релизер): fwhitfie
Наличие сканов в содержимом раздачи: сетевые
Треклист:
01. Danny Boy (3:08)
02. The Coffee Song (with Cathi Campo) (2:48)
03. I'm Confessin' That I Love You (4:31)
04. I Left My Heart in San Francisco (3:51)
05. Old Friends (5:00)
06. White Christmas (3:17)
07. There Will Never Be Another You (3:25)
08. Falling in Love Again (2:36)
09. Sophisticated Lady (3:41)
10. How Will I Remember You (4:17)
11. Mambo Italiano (2:35)
12. The Promise (I'll Never Say Goodbye) (4:09)
13. Heart's Desire (4:06)
14. We'll Meet Again (4:16)
15. Time Flies (3:37)
16. Dear Departed Past (6:26)
 
Лог создания рипа
Exact Audio Copy V1.3 from 2. September 2016
EAC extraction logfile from 3. January 2017, 14:10
Rosemary Clooney / Demi-Centennial
Used drive : TSSTcorpCDDVDW SH-224DB Adapter: 1 ID: 1
Read mode : Secure
Utilize accurate stream : Yes
Defeat audio cache : Yes
Make use of C2 pointers : No
Read offset correction : 6
Overread into Lead-In and Lead-Out : No
Fill up missing offset samples with silence : Yes
Delete leading and trailing silent blocks : No
Null samples used in CRC calculations : Yes
Used interface : Native Win32 interface for Win NT & 2000
Gap handling : Appended to previous track
Used output format : User Defined Encoder
Selected bitrate : 896 kBit/s
Quality : High
Add ID3 tag : No
Command line compressor : C:\Program Files (x86)\Exact Audio Copy\FLAC\FLAC.EXE
Additional command line options : -8 -V -T "ARTIST=%artist%" -T "TITLE=%title%" -T "ALBUM=%albumtitle%" -T "DATE=%year%" -T "TRACKNUMBER=%tracknr%" -T "GENRE=%genre%" -T "COMMENT=%comment%" -T "BAND=%albuminterpret%" -T "ALBUMARTIST=%albuminterpret%" -T "COMPOSER=%composer%" %haslyrics%--tag-from-file=LYRICS="%lyricsfile%"%haslyrics% -T "DISCNUMBER=%cdnumber%" -T "TOTALDISCS=%totalcds%" -T "TOTALTRACKS=%numtracks%" %hascover%--picture="%coverfile%"%hascover% %source% -o %dest%
TOC of the extracted CD
Track | Start | Length | Start sector | End sector
---------------------------------------------------------
1 | 0:00.00 | 3:07.47 | 0 | 14071
2 | 3:07.47 | 2:47.43 | 14072 | 26639
3 | 5:55.15 | 4:31.25 | 26640 | 46989
4 | 10:26.40 | 3:50.52 | 46990 | 64291
5 | 14:17.17 | 4:59.40 | 64292 | 86756
6 | 19:16.57 | 3:16.53 | 86757 | 101509
7 | 22:33.35 | 3:24.65 | 101510 | 116874
8 | 25:58.25 | 2:35.67 | 116875 | 128566
9 | 28:34.17 | 3:40.65 | 128567 | 145131
10 | 32:15.07 | 4:16.58 | 145132 | 164389
11 | 36:31.65 | 2:35.25 | 164390 | 176039
12 | 39:07.15 | 4:09.20 | 176040 | 194734
13 | 43:16.35 | 4:06.30 | 194735 | 213214
14 | 47:22.65 | 4:15.42 | 213215 | 232381
15 | 51:38.32 | 3:36.60 | 232382 | 248641
16 | 55:15.17 | 6:25.38 | 248642 | 277554
Track 1
Filename D:\Rips\01 - Danny Boy.wav
Pre-gap length 0:00:02.00
Peak level 28.0 %
Extraction speed 1.7 X
Track quality 100.0 %
Test CRC E8D533EC
Copy CRC E8D533EC
Accurately ripped (confidence 3) [1563086E] (AR v1)
Copy OK
Track 2
Filename D:\Rips\02 - The Coffee Song (w, Cathi Campo).wav
Pre-gap length 0:00:03.33
Peak level 96.4 %
Extraction speed 1.7 X
Track quality 100.0 %
Test CRC 1811CEBF
Copy CRC 1811CEBF
Accurately ripped (confidence 3) [B1A95B7B] (AR v1)
Copy OK
Track 3
Filename D:\Rips\03 - I'm Confessin' That I Love You.wav
Pre-gap length 0:00:03.33
Peak level 62.8 %
Extraction speed 2.1 X
Track quality 100.0 %
Test CRC 965BDD0A
Copy CRC 965BDD0A
Accurately ripped (confidence 3) [2579CEFC] (AR v1)
Copy OK
Track 4
Filename D:\Rips\04 - I Left My Heart In San Francisco.wav
Pre-gap length 0:00:03.04
Peak level 83.6 %
Extraction speed 2.2 X
Track quality 100.0 %
Test CRC 2169F269
Copy CRC 2169F269
Accurately ripped (confidence 3) [41D018D8] (AR v1)
Copy OK
Track 5
Filename D:\Rips\05 - Old Friends.wav
Pre-gap length 0:00:02.76
Peak level 72.8 %
Extraction speed 2.5 X
Track quality 100.0 %
Test CRC E26F4FB4
Copy CRC E26F4FB4
Accurately ripped (confidence 3) [D429F6C9] (AR v1)
Copy OK
Track 6
Filename D:\Rips\06 - White Christmas.wav
Pre-gap length 0:00:03.16
Peak level 61.9 %
Extraction speed 2.5 X
Track quality 100.0 %
Test CRC F6EE0989
Copy CRC F6EE0989
Accurately ripped (confidence 2) [02D7C4FC] (AR v1)
Copy OK
Track 7
Filename D:\Rips\07 - There Will Never Be Another You.wav
Pre-gap length 0:00:02.84
Peak level 56.0 %
Extraction speed 2.0 X
Track quality 99.9 %
Test CRC BAD9640D
Copy CRC BAD9640D
Accurately ripped (confidence 3) [DBFAB748] (AR v1)
Copy OK
Track 8
Filename D:\Rips\08 - Falling In Love Again.wav
Pre-gap length 0:00:03.10
Peak level 22.8 %
Extraction speed 2.5 X
Track quality 100.0 %
Test CRC 883D6941
Copy CRC 883D6941
Accurately ripped (confidence 3) [67E2C212] (AR v1)
Copy OK
Track 9
Filename D:\Rips\09 - Sophisticated Lady.wav
Pre-gap length 0:00:03.22
Peak level 47.3 %
Extraction speed 2.8 X
Track quality 100.0 %
Test CRC D46ADC11
Copy CRC D46ADC11
Accurately ripped (confidence 3) [6A883632] (AR v1)
Copy OK
Track 10
Filename D:\Rips\10 - How Will I Remember You.wav
Pre-gap length 0:00:03.13
Peak level 51.8 %
Extraction speed 3.0 X
Track quality 100.0 %
Test CRC 513C1D9C
Copy CRC 513C1D9C
Accurately ripped (confidence 3) [F0A32CF7] (AR v1)
Copy OK
Track 11
Filename D:\Rips\11 - Mambo Italiano.wav
Pre-gap length 0:00:02.64
Peak level 93.0 %
Extraction speed 2.1 X
Track quality 99.9 %
Test CRC BD6F60EB
Copy CRC BD6F60EB
Accurately ripped (confidence 2) [CE046111] (AR v1)
Copy OK
Track 12
Filename D:\Rips\12 - The Promise (I'll Never Say Goodbye).wav
Pre-gap length 0:00:03.00
Peak level 51.1 %
Extraction speed 3.2 X
Track quality 100.0 %
Test CRC 8AAE6A11
Copy CRC 8AAE6A11
Accurately ripped (confidence 2) [9A9EDA68] (AR v1)
Copy OK
Track 13
Filename D:\Rips\13 - Heart's Desire.wav
Pre-gap length 0:00:02.86
Peak level 43.9 %
Extraction speed 3.3 X
Track quality 100.0 %
Test CRC C1E5045D
Copy CRC C1E5045D
Accurately ripped (confidence 2) [886592A6] (AR v1)
Copy OK
Track 14
Filename D:\Rips\14 - We'll Meet Again.wav
Pre-gap length 0:00:02.37
Peak level 70.2 %
Extraction speed 3.4 X
Track quality 100.0 %
Test CRC B033EA86
Copy CRC B033EA86
Accurately ripped (confidence 3) [1C620591] (AR v1)
Copy OK
Track 15
Filename D:\Rips\15 - Time Flies.wav
Pre-gap length 0:00:03.02
Peak level 36.9 %
Extraction speed 2.6 X
Track quality 99.9 %
Test CRC 4D104F2F
Copy CRC 4D104F2F
Accurately ripped (confidence 2) [2413F9AC] (AR v1)
Copy OK
Track 16
Filename D:\Rips\16 - Dear Departed Past.wav
Pre-gap length 0:00:02.46
Peak level 50.2 %
Extraction speed 3.8 X
Track quality 100.0 %
Test CRC 5C14C3B3
Copy CRC 5C14C3B3
Accurately ripped (confidence 3) [6D83FC2E] (AR v1)
Copy OK
All tracks accurately ripped
No errors occurred
End of status report
---- CUETools DB Plugin V2.1.6
[CTDB TOCID: K6rrzjlY0ibNleVuHdDH7KztK2U-] found
Submit result: K6rrzjlY0ibNleVuHdDH7KztK2U- has been confirmed
Track | CTDB Status
1 | (7/7) Accurately ripped
2 | (7/7) Accurately ripped
3 | (7/7) Accurately ripped
4 | (7/7) Accurately ripped
5 | (7/7) Accurately ripped
6 | (7/7) Accurately ripped
7 | (7/7) Accurately ripped
8 | (6/7) Accurately ripped
9 | (7/7) Accurately ripped
10 | (7/7) Accurately ripped
11 | (7/7) Accurately ripped
12 | (7/7) Accurately ripped
13 | (7/7) Accurately ripped
14 | (7/7) Accurately ripped
15 | (7/7) Accurately ripped
16 | (7/7) Accurately ripped
==== Log checksum 55FE061913CB6370E5431327F04C82BDAF56998D038D8CB17059279117B97D7F ====
 
Содержание индексной карты (.CUE)
REM GENRE Jazz
REM DATE 1995
REM DISCID F20E7410
REM COMMENT "ExactAudioCopy v1.3"
PERFORMER "Rosemary Clooney"
TITLE "Demi-Centennial"
FILE "01 - Danny Boy.wav" WAVE
TRACK 01 AUDIO
TITLE "Danny Boy"
PERFORMER "Rosemary Clooney"
INDEX 01 00:00:00
TRACK 02 AUDIO
TITLE "The Coffee Song (with Cathi Campo)"
PERFORMER "Rosemary Clooney"
INDEX 00 03:04:22
FILE "02 - The Coffee Song (with Cathi Campo).wav" WAVE
INDEX 01 00:00:00
TRACK 03 AUDIO
TITLE "I'm Confessin' That I Love You"
PERFORMER "Rosemary Clooney"
INDEX 00 02:44:18
FILE "03 - I'm Confessin' That I Love You.wav" WAVE
INDEX 01 00:00:00
TRACK 04 AUDIO
TITLE "I Left My Heart in San Francisco"
PERFORMER "Rosemary Clooney"
INDEX 00 04:28:22
FILE "04 - I Left My Heart in San Francisco.wav" WAVE
INDEX 01 00:00:00
TRACK 05 AUDIO
TITLE "Old Friends"
PERFORMER "Rosemary Clooney"
INDEX 00 03:47:70
FILE "05 - Old Friends.wav" WAVE
INDEX 01 00:00:00
TRACK 06 AUDIO
TITLE "White Christmas"
PERFORMER "Rosemary Clooney"
INDEX 00 04:56:28
FILE "06 - White Christmas.wav" WAVE
INDEX 01 00:00:00
TRACK 07 AUDIO
TITLE "There Will Never Be Another You"
PERFORMER "Rosemary Clooney"
INDEX 00 03:13:65
FILE "07 - There Will Never Be Another You.wav" WAVE
INDEX 01 00:00:00
TRACK 08 AUDIO
TITLE "Falling in Love Again"
PERFORMER "Rosemary Clooney"
INDEX 00 03:21:57
FILE "08 - Falling in Love Again.wav" WAVE
INDEX 01 00:00:00
TRACK 09 AUDIO
TITLE "Sophisticated Lady"
PERFORMER "Rosemary Clooney"
INDEX 00 02:32:50
FILE "09 - Sophisticated Lady.wav" WAVE
INDEX 01 00:00:00
TRACK 10 AUDIO
TITLE "How Will I Remember You"
PERFORMER "Rosemary Clooney"
INDEX 00 03:37:55
FILE "10 - How Will I Remember You.wav" WAVE
INDEX 01 00:00:00
TRACK 11 AUDIO
TITLE "Mambo Italiano"
PERFORMER "Rosemary Clooney"
INDEX 00 04:14:10
FILE "11 - Mambo Italiano.wav" WAVE
INDEX 01 00:00:00
TRACK 12 AUDIO
TITLE "The Promise (I'll Never Say Goodbye)"
PERFORMER "Rosemary Clooney"
INDEX 00 02:32:25
FILE "12 - The Promise (I'll Never Say Goodbye).wav" WAVE
INDEX 01 00:00:00
TRACK 13 AUDIO
TITLE "Heart's Desire"
PERFORMER "Rosemary Clooney"
INDEX 00 04:06:30
FILE "13 - Heart's Desire.wav" WAVE
INDEX 01 00:00:00
TRACK 14 AUDIO
TITLE "We'll Meet Again"
PERFORMER "Rosemary Clooney"
INDEX 00 04:04:02
FILE "14 - We'll Meet Again.wav" WAVE
INDEX 01 00:00:00
TRACK 15 AUDIO
TITLE "Time Flies"
PERFORMER "Rosemary Clooney"
INDEX 00 04:12:40
FILE "15 - Time Flies.wav" WAVE
INDEX 01 00:00:00
TRACK 16 AUDIO
TITLE "Dear Departed Past"
PERFORMER "Rosemary Clooney"
INDEX 00 03:34:25
FILE "16 - Dear Departed Past.wav" WAVE
INDEX 01 00:00:00
 
Отчет CUETools
[CUETools log; Date: 21.07.2018 23:20:03; Version: 2.1.5]
[CTDB TOCID: K6rrzjlY0ibNleVuHdDH7KztK2U-] found.
Track | CTDB Status
1 | (10/10) Accurately ripped
2 | (10/10) Accurately ripped
3 | (10/10) Accurately ripped
4 | (10/10) Accurately ripped
5 | ( 9/10) Accurately ripped
6 | (10/10) Accurately ripped
7 | (10/10) Accurately ripped
8 | ( 9/10) Accurately ripped
9 | (10/10) Accurately ripped
10 | (10/10) Accurately ripped
11 | (10/10) Accurately ripped
12 | (10/10) Accurately ripped
13 | (10/10) Accurately ripped
14 | (10/10) Accurately ripped
15 | (10/10) Accurately ripped
16 | ( 9/10) Accurately ripped
[AccurateRip ID: 00222562-019c2ad0-f20e7410] found.
Track [ CRC | V2 ] Status
01 [1563086e|bb518a2f] (03+04/13) Accurately ripped
02 [b1a95b7b|f2c034f0] (03+03/12) Accurately ripped
03 [2579cefc|4cb98dcc] (03+04/13) Accurately ripped
04 [41d018d8|666a4387] (03+04/13) Accurately ripped
05 [d429f6c9|ca0009df] (03+04/13) Accurately ripped
06 [02d7c4fc|0301cb5b] (02+04/12) Accurately ripped
07 [dbfab748|d9dec8f9] (03+04/13) Accurately ripped
08 [67e2c212|12baccb5] (03+04/13) Accurately ripped
09 [6a883632|71c4c767] (03+04/13) Accurately ripped
10 [f0a32cf7|de9d7f35] (03+04/13) Accurately ripped
11 [ce046111|98734848] (02+03/11) Accurately ripped
12 [9a9eda68|ea7cbcdb] (02+04/12) Accurately ripped
13 [886592a6|0e97ba59] (02+04/12) Accurately ripped
14 [1c620591|c7c787fd] (03+04/13) Accurately ripped
15 [2413f9ac|f7c38a9b] (02+04/12) Accurately ripped
16 [6d83fc2e|92683678] (03+04/13) Accurately ripped
Offsetted by -271:
01 [0c753311] (02/13) Accurately ripped
02 [3a05a27a] (02/12) Accurately ripped
03 [4b6c0a02] (02/13) Accurately ripped
04 [267cfe7a] (02/13) Accurately ripped
05 [b0e3c5e3] (02/13) Accurately ripped
06 [0951d541] (02/12) Accurately ripped
07 [9fbe0952] (02/13) Accurately ripped
08 [18550c8c] (02/13) Accurately ripped
09 [2dbbbb16] (02/13) Accurately ripped
10 [14e6d640] (02/13) Accurately ripped
11 [86121940] (02/11) Accurately ripped
12 [320bea6b] (02/12) Accurately ripped
13 [23722570] (02/12) Accurately ripped
14 [009909a2] (02/13) Accurately ripped
15 [17025c17] (02/12) Accurately ripped
16 [84fccf29] (02/13) Accurately ripped
Track Peak [ CRC32 ] [W/O NULL] [ LOG ]
-- 96,4 [1ACF8114] [49448676]
01 28,0 [E8D533EC] [999215E1] CRC32
02 96,4 [1811CEBF] [EDE7B4C0] CRC32
03 62,8 [965BDD0A] [4A5E7DBA] CRC32
04 83,6 [2169F269] [0AE4DB43] CRC32
05 72,8 [E26F4FB4] [33A5906C] CRC32
06 61,9 [F6EE0989] [44514895] CRC32
07 56,0 [BAD9640D] [FDA136E6] CRC32
08 22,8 [883D6941] [EDE71C73] CRC32
09 47,3 [D46ADC11] [EE2A92D2] CRC32
10 51,8 [513C1D9C] [3837E417] CRC32
11 93,0 [BD6F60EB] [290B68EE] CRC32
12 51,1 [8AAE6A11] [D6B42136] CRC32
13 43,9 [C1E5045D] [03E153FC] CRC32
14 70,2 [B033EA86] [6C42D785] CRC32
15 36,9 [4D104F2F] [12A47772] CRC32
16 50,2 [5C14C3B3] [7143C2E3] CRC32
 
AllMusic Review by Scott Yanow
During her very rich Concord years, which resulted in a renaissance for the veteran singer, Rosemary Clooney was generally featured singing swing standards with a jazz rhythm section, tenor saxophonist Scott Hamilton, and (in the early days) cornetist Warren Vaché. But by the early '90s, Clooney was being heard more often than not in orchestral settings. This CD celebrates her first 50 years in show business. Although she does not re-create her hits, the 16 songs that Clooney chose to sing on this interesting set signify different periods of her life. "Danny Boy" was a melody she sang as a child; "The Coffee Song" (which she originally performed with her late sister Betty Clooney) has her niece Cathi Campo joining in a duet; "I'm Confessin' (That I Love You)" was a song that her former employer Tony Pastor used to perform nightly; there are tributes to Duke Ellington and Nelson Riddle, etc. Some of the numbers find Clooney accompanied by a string orchestra; there is a big band on a few tunes; and short solos along the way are taken by altoist Gary Foster, trumpeter Warren Luening, and pianist John Oddo (her musical director). Rosemary Clooney's voice is still in fine form on this outing, and there are enough strong sections (along with plenty of nostalgic moments) to make the CD easily recommended to Clooney fans.
Приватный:
Нет (DHT включён)
Размер:
300.05 Мб (314,626,945 байт) » файлов: 25
Участники:
0 раздают, 0 качают (0 участников всего)
Внешние участники:
--- [ Обновить ]
07:43
6
Нет комментариев. Ваш будет первым!