Поиск

(Vocal Jazz) [CD] Fay Claassen - Luck Child - 2017, FLAC (tracks+.cue), lossless

(Vocal Jazz) [CD] Fay Claassen - Luck Child - 2017, FLAC (tracks+.cue), lossless
Треклист:
Fay Claassen - Luck Child
Жанр: Vocal Jazz
Носитель: CD
Страна-производитель диска (релиза): EU
Год издания: 2017
Издатель (лейбл): Challenge Records
Номер по каталогу: CR73425
Страна исполнителя (группы): Нидерланды
Аудиокодек: FLAC (*.flac)
Тип рипа: tracks+.cue
Битрейт аудио: lossless
Продолжительность: 49:54
Источник (релизер): gagarin
Наличие сканов в содержимом раздачи: да
Треклист:
01. Luck Child (a.k.a. Sandbox) (Stern-O'Daly) - 4:01
02. One Trick Pony (Simon) - 3:35
03. Song of Life (Hersch-Winstone) - 4:08
04. Blackbird (McCartney) - 5:05
05. Fay (Wheeler) - 3:25
06. In a Sentimental Mood (Ellington) - 4:57
07. Finding You (Heller-Goldsby) - 3:56
08. When Love Is New (Walton-Hackett-Hackett) - 4:48
09. Oh Shenandoah (Trad.) - 3:47
10. Miniature No.7 (Heller) - 1:00
11. A House Is Not a Home (Bacharach) - 3:20
12. God Bless the Child (Herzog-Holiday) - 4:28
13. Cinema Paradiso (Morricone) - 3:24
Состав:
Fay Claassen - vocals
Olaf Polziehn - piano
Peter Tiehuis - guitar
Ingmar Heller - bass
Paul Heller (#10) - clarinet, bass clarinet, tenor saxophone
 
Лог создания рипа
Exact Audio Copy V1.3 from 2. September 2016
EAC extraction logfile from 17. July 2018, 14:47
Fay Claassen / Luck Child
Used drive : Optiarc BD ROM BC-5650H Adapter: 1 ID: 1
Read mode : Secure
Utilize accurate stream : Yes
Defeat audio cache : Yes
Make use of C2 pointers : No
Read offset correction : 48
Overread into Lead-In and Lead-Out : No
Fill up missing offset samples with silence : Yes
Delete leading and trailing silent blocks : No
Null samples used in CRC calculations : Yes
Used interface : Native Win32 interface for Win NT & 2000
Gap handling : Appended to previous track
Used output format : User Defined Encoder
Selected bitrate : 1024 kBit/s
Quality : High
Add ID3 tag : No
Command line compressor : C:\Program Files\flac-1.3.2-win\win32\flac.exe
Additional command line options : -8 -e -p -V -T "ARTIST=%artist%" -T "TITLE=%title%" -T "ALBUM=%albumtitle%" -T "DATE=%year%" -T "TRACKNUMBER=%tracknr%" -T "GENRE=%genre%" -T "PERFORMER=%albuminterpret%" -T "COMPOSER=%composer%" %haslyrics%--tag-from-file=LYRICS="%lyricsfile%"%haslyrics% -T "ALBUMARTIST=%albumartist%" -T "DISCNUMBER=%cdnumber%" -T "TOTALDISCS=%totalcds%" -T "TOTALTRACKS=%numtracks%" -T "COMMENT=%comment%" %source% -o %dest%
TOC of the extracted CD
Track | Start | Length | Start sector | End sector
---------------------------------------------------------
1 | 0:00.00 | 4:01.35 | 0 | 18109
2 | 4:01.35 | 3:35.02 | 18110 | 34236
3 | 7:36.37 | 4:07.51 | 34237 | 52812
4 | 11:44.13 | 5:05.19 | 52813 | 75706
5 | 16:49.32 | 3:24.44 | 75707 | 91050
6 | 20:14.01 | 4:56.64 | 91051 | 113314
7 | 25:10.65 | 3:56.14 | 113315 | 131028
8 | 29:07.04 | 4:48.20 | 131029 | 152648
9 | 33:55.24 | 3:46.74 | 152649 | 169672
10 | 37:42.23 | 1:00.36 | 169673 | 174208
11 | 38:42.59 | 3:19.72 | 174209 | 189205
12 | 42:02.56 | 4:27.44 | 189206 | 209274
13 | 46:30.25 | 3:23.38 | 209275 | 224537
Track 1
Filename Z:\home\encoding\FLAC\Fay Claassen - Luck Child (2017) [FLAC] {}\01 - Luck Child (A.K.A. Sandbox).wav
Pre-gap length 0:00:02.00
Peak level 98.8 %
Extraction speed 9.8 X
Track quality 100.0 %
Test CRC 2BC08904
Copy CRC 2BC08904
Accurately ripped (confidence 9) [5DF7D567] (AR v2)
Copy OK
Track 2
Filename Z:\home\encoding\FLAC\Fay Claassen - Luck Child (2017) [FLAC] {}\02 - One Trick Pony.wav
Peak level 98.8 %
Extraction speed 10.1 X
Track quality 100.0 %
Test CRC DF723647
Copy CRC DF723647
Accurately ripped (confidence 8) [094B8204] (AR v2)
Copy OK
Track 3
Filename Z:\home\encoding\FLAC\Fay Claassen - Luck Child (2017) [FLAC] {}\03 - Song of Life.wav
Peak level 98.8 %
Extraction speed 10.0 X
Track quality 99.9 %
Test CRC 566D9C46
Copy CRC 566D9C46
Accurately ripped (confidence 9) [DD98D75E] (AR v2)
Copy OK
Track 4
Filename Z:\home\encoding\FLAC\Fay Claassen - Luck Child (2017) [FLAC] {}\04 - Blackbird.wav
Peak level 98.8 %
Extraction speed 12.7 X
Track quality 100.0 %
Test CRC 78A2127E
Copy CRC 78A2127E
Accurately ripped (confidence 8) [41EBB6A3] (AR v2)
Copy OK
Track 5
Filename Z:\home\encoding\FLAC\Fay Claassen - Luck Child (2017) [FLAC] {}\05 - Fay.wav
Peak level 98.8 %
Extraction speed 13.1 X
Track quality 100.0 %
Test CRC C525C1EA
Copy CRC C525C1EA
Accurately ripped (confidence 8) [32394518] (AR v2)
Copy OK
Track 6
Filename Z:\home\encoding\FLAC\Fay Claassen - Luck Child (2017) [FLAC] {}\06 - In a Sentimental Mood.wav
Peak level 98.8 %
Extraction speed 14.3 X
Track quality 100.0 %
Test CRC EE346D26
Copy CRC EE346D26
Accurately ripped (confidence 8) [CF807D4F] (AR v2)
Copy OK
Track 7
Filename Z:\home\encoding\FLAC\Fay Claassen - Luck Child (2017) [FLAC] {}\07 - Finding You.wav
Peak level 98.8 %
Extraction speed 14.9 X
Track quality 100.0 %
Test CRC F17ADA13
Copy CRC F17ADA13
Accurately ripped (confidence 8) [EEAB3BAD] (AR v2)
Copy OK
Track 8
Filename Z:\home\encoding\FLAC\Fay Claassen - Luck Child (2017) [FLAC] {}\08 - When Love Is New.wav
Peak level 98.8 %
Extraction speed 15.8 X
Track quality 100.0 %
Test CRC 590E0B61
Copy CRC 590E0B61
Accurately ripped (confidence 8) [2DBCD4B8] (AR v2)
Copy OK
Track 9
Filename Z:\home\encoding\FLAC\Fay Claassen - Luck Child (2017) [FLAC] {}\09 - Oh Shenandoah.wav
Peak level 98.8 %
Extraction speed 15.8 X
Track quality 100.0 %
Test CRC 0A51217A
Copy CRC 0A51217A
Accurately ripped (confidence 8) [5E6FEA93] (AR v2)
Copy OK
Track 10
Filename Z:\home\encoding\FLAC\Fay Claassen - Luck Child (2017) [FLAC] {}\10 - Miniature No. 7.wav
Peak level 98.8 %
Extraction speed 13.1 X
Track quality 100.0 %
Test CRC 552E37FA
Copy CRC 552E37FA
Accurately ripped (confidence 8) [8F590A50] (AR v2)
Copy OK
Track 11
Filename Z:\home\encoding\FLAC\Fay Claassen - Luck Child (2017) [FLAC] {}\11 - A House Is Not a Home.wav
Peak level 98.8 %
Extraction speed 16.2 X
Track quality 100.0 %
Test CRC 25DAE197
Copy CRC 25DAE197
Accurately ripped (confidence 8) [63F2DB51] (AR v2)
Copy OK
Track 12
Filename Z:\home\encoding\FLAC\Fay Claassen - Luck Child (2017) [FLAC] {}\12 - God Bless the Child.wav
Peak level 98.8 %
Extraction speed 15.7 X
Track quality 99.9 %
Test CRC FCDA96C5
Copy CRC FCDA96C5
Accurately ripped (confidence 8) [E20D4546] (AR v2)
Copy OK
Track 13
Filename Z:\home\encoding\FLAC\Fay Claassen - Luck Child (2017) [FLAC] {}\13 - Cinema Paradiso.wav
Peak level 95.1 %
Extraction speed 16.2 X
Track quality 99.9 %
Test CRC CB4B7A41
Copy CRC CB4B7A41
Accurately ripped (confidence 9) [3DAA250C] (AR v2)
Copy OK
All tracks accurately ripped
No errors occurred
End of status report
==== Log checksum 5682227F740939D91C8DC1A35B55EEADF4B0754C9C316450CC39DA5ABFDD343F ====
 
Содержание индексной карты (.CUE)
REM GENRE Jazz
REM DATE 2017
REM DISCID 9A0BB10D
REM COMMENT "ExactAudioCopy v1.3"
PERFORMER "Fay Claassen"
TITLE "Luck Child"
FILE "01 - Luck Child (a.k.a. Sandbox).wav" WAVE
TRACK 01 AUDIO
TITLE "Luck Child (a.k.a. Sandbox)"
PERFORMER "Fay Claassen"
INDEX 01 00:00:00
FILE "02 - One Trick Pony.wav" WAVE
TRACK 02 AUDIO
TITLE "One Trick Pony"
PERFORMER "Fay Claassen"
INDEX 01 00:00:00
FILE "03 - Song of Life.wav" WAVE
TRACK 03 AUDIO
TITLE "Song of Life"
PERFORMER "Fay Claassen"
INDEX 01 00:00:00
FILE "04 - Blackbird.wav" WAVE
TRACK 04 AUDIO
TITLE "Blackbird"
PERFORMER "Fay Claassen"
INDEX 01 00:00:00
FILE "05 - Fay.wav" WAVE
TRACK 05 AUDIO
TITLE "Fay"
PERFORMER "Fay Claassen"
INDEX 01 00:00:00
FILE "06 - In a Sentimental Mood.wav" WAVE
TRACK 06 AUDIO
TITLE "In a Sentimental Mood"
PERFORMER "Fay Claassen"
INDEX 01 00:00:00
FILE "07 - Finding You.wav" WAVE
TRACK 07 AUDIO
TITLE "Finding You"
PERFORMER "Fay Claassen"
INDEX 01 00:00:00
FILE "08 - When Love Is New.wav" WAVE
TRACK 08 AUDIO
TITLE "When Love Is New"
PERFORMER "Fay Claassen"
INDEX 01 00:00:00
FILE "09 - Oh Shenandoah.wav" WAVE
TRACK 09 AUDIO
TITLE "Oh Shenandoah"
PERFORMER "Fay Claassen"
INDEX 01 00:00:00
FILE "10 - Miniature No.7.wav" WAVE
TRACK 10 AUDIO
TITLE "Miniature No.7"
PERFORMER "Fay Claassen"
INDEX 01 00:00:00
FILE "11 - A House Is Not a Home.wav" WAVE
TRACK 11 AUDIO
TITLE "A House Is Not a Home"
PERFORMER "Fay Claassen"
INDEX 01 00:00:00
FILE "12 - God Bless the Child.wav" WAVE
TRACK 12 AUDIO
TITLE "God Bless the Child"
PERFORMER "Fay Claassen"
INDEX 01 00:00:00
FILE "13 - Cinema Paradiso.wav" WAVE
TRACK 13 AUDIO
TITLE "Cinema Paradiso"
PERFORMER "Fay Claassen"
INDEX 01 00:00:00
 
Отчет CUETools
[CUETools log; Date: 20.07.2018 0:43:01; Version: 2.1.5]
[CTDB TOCID: x7eLK2o5VmlNOMXzmRzNG387R38-] found.
Track | CTDB Status
1 | (21/21) Accurately ripped
2 | (21/21) Accurately ripped
3 | (21/21) Accurately ripped
4 | (21/21) Accurately ripped
5 | (21/21) Accurately ripped
6 | (21/21) Accurately ripped
7 | (21/21) Accurately ripped
8 | (21/21) Accurately ripped
9 | (21/21) Accurately ripped
10 | (21/21) Accurately ripped
11 | (21/21) Accurately ripped
12 | (21/21) Accurately ripped
13 | (21/21) Accurately ripped
[AccurateRip ID: 0018f5e4-00f7c557-9a0bb10d] found.
Track [ CRC | V2 ] Status
01 [6b080e1a|5df7d567] (0+9/9) Accurately ripped
02 [1a6c229e|094b8204] (0+8/8) Accurately ripped
03 [f590bab1|dd98d75e] (0+9/9) Accurately ripped
04 [7061e9b3|41ebb6a3] (0+8/8) Accurately ripped
05 [c2da1046|32394518] (0+8/8) Accurately ripped
06 [7a491441|cf807d4f] (0+8/8) Accurately ripped
07 [e82ff7d4|eeab3bad] (0+8/8) Accurately ripped
08 [636eb223|2dbcd4b8] (0+8/8) Accurately ripped
09 [b700b7f1|5e6fea93] (0+8/8) Accurately ripped
10 [a78f4c8f|8f590a50] (0+8/8) Accurately ripped
11 [16aeeed7|63f2db51] (0+8/8) Accurately ripped
12 [240cb904|e20d4546] (0+8/8) Accurately ripped
13 [684f838a|3daa250c] (0+9/9) Accurately ripped
Track Peak [ CRC32 ] [W/O NULL] [ LOG ]
-- 98,8 [65FA6373] [06E22211]
01 98,8 [2BC08904] [9274ADAC] CRC32
02 98,8 [DF723647] [3AB4D101] CRC32
03 98,8 [566D9C46] [97851A8B] CRC32
04 98,8 [78A2127E] [F7CCF712] CRC32
05 98,8 [C525C1EA] [183D1861] CRC32
06 98,8 [EE346D26] [82AB397F] CRC32
07 98,8 [F17ADA13] [E98F3FF5] CRC32
08 98,8 [590E0B61] [874E469D] CRC32
09 98,8 [0A51217A] [C348E079] CRC32
10 98,8 [552E37FA] [E3308F9F] CRC32
11 98,8 [25DAE197] [06F0D78A] CRC32
12 98,8 [FCDA96C5] [66E40CC5] CRC32
13 95,1 [CB4B7A41] [232DEA39] CRC32
 
Review by C. Michael Bailey
Dutch singer Fay Claassen has taken her sweet time releasing a follow-up to her 2010 big band release, Sing (Challenge). Her most recent recordings before sing include Red, Hot & Blue: The Music of Cole Porter (Challenge, 2009), and the uniformly excellent Two Portraits Of Chet Baker (Munich, 2006), all uniquely their own works of art.
On Luck Child, Claassen steps out of the standard's-heavy arena, devoting her attention to more contemporary fare like the funky blues of Paul Simon's "One Trick Pony" and an airy take on the Beatles' "Blackbird." The singer takes on more modern jazz compositions like Fred Hersch's "Song of Life," with lyrics by Norma Winstone and Cedar Walton's "When Love is New," lyrics by John and Paula Hackett. Kenny Wheeler's "Fay," dedicated to the singer provides a breezy melody for Claassen's wordless singing.
Pianist Olaf Polziehn's is graceful and well-suited to Claassen's light touch. The American traditional "Oh Shenandoah," is pleasantly lit by the singer's clear alto, cushioned on Polziehn sparse support. Claassen updates "God Bless the Child" with a bit of jaunt in its strut. She closes the disc with a wordlessly dreamy "Cinema Paradiso" that beautifully captures this fine singer in full flight.
Скачивание доступно после регистрации!!
Приватный:
Нет (DHT включён)
Размер:
240.00 Мб (251,657,695 байт) » файлов: 21
Участники:
0 раздают, 0 качают (0 участников всего)
Внешние участники:
--- [ Обновить ]
07:43
10
Нет комментариев. Ваш будет первым!