Поиск

(Electronic, Future Jazz) [CD] Beady Belle - Home - 2001 (2004), FLAC (tracks+.cue), lossless

(Electronic, Future Jazz) [CD] Beady Belle - Home - 2001 (2004), FLAC (tracks+.cue), lossless
Треклист:
Beady Belle / Home
Жанр: Electronic, Future Jazz
Носитель: CD
Страна-производитель диска (релиза): Norway
Год издания: 2001
Год издания CD: 2004
Издатель (лейбл): Jazzland Recordings
Номер по каталогу: 0044001350924
Страна исполнителя (группы): Norway
Аудиокодек: FLAC (*.flac)
Тип рипа: tracks+.cue
Битрейт аудио: lossless
Продолжительность: 53:39
Источник (релизер): DP
Наличие сканов в содержимом раздачи: да
Треклист:
01. Ghosts 5:12
02. Moderation 5:17
03. Lose & Win 4:32
04. On The Radio (Interlude) 0:31
05. Drawback 7:13
06. Waiting (Interlude) 0:52
07. In A Good Way 5:37
08. Game 4:38
09. Mobile Bubble 5:32
10. Pantile 5:09
11. Consolatory Dance 8:54
 
Лог создания рипа
Exact Audio Copy V1.0 beta 3 from 29. August 2011
EAC extraction logfile from 26. April 2014, 19:36
Beady Belle / Home
Used drive : HL-DT-STDVD-ROM GDR8161B Adapter: 4 ID: 1
Read mode : Secure
Utilize accurate stream : Yes
Defeat audio cache : Yes
Make use of C2 pointers : No
Read offset correction : 102
Overread into Lead-In and Lead-Out : No
Fill up missing offset samples with silence : Yes
Delete leading and trailing silent blocks : No
Null samples used in CRC calculations : Yes
Used interface : Native Win32 interface for Win NT & 2000
Gap handling : Appended to previous track
Used output format : User Defined Encoder
Selected bitrate : 896 kBit/s
Quality : High
Add ID3 tag : No
Command line compressor : C:\Program Files (x86)\Exact Audio Copy\Flac\flac.exe
Additional command line options : -8 -V -T "ARTIST=%artist%" -T "TITLE=%title%" -T "ALBUM=%albumtitle%" -T "DATE=%year%" -T "TRACKNUMBER=%tracknr%" -T "TOTALTRACKS=%numtracks%" -T "GENRE=%genre%" -T "ALBUMARTIST=%albumartist%" -T "ALBUM ARTIST=%albumartist%" -T "COMMENT=EAC Secure Mode, Test & Copy, AccurateRip, FLAC -8" %source%
TOC of the extracted CD
Track | Start | Length | Start sector | End sector
---------------------------------------------------------
1 | 0:00.00 | 5:11.70 | 0 | 23394
2 | 5:11.70 | 5:19.27 | 23395 | 47346
3 | 10:31.22 | 4:32.28 | 47347 | 67774
4 | 15:03.50 | 0:31.65 | 67775 | 70164
5 | 15:35.40 | 7:13.47 | 70165 | 102686
6 | 22:49.12 | 0:52.30 | 102687 | 106616
7 | 23:41.42 | 5:37.38 | 106617 | 131929
8 | 29:19.05 | 4:40.30 | 131930 | 152959
9 | 33:59.35 | 5:32.52 | 152960 | 177911
10 | 39:32.12 | 5:11.40 | 177912 | 201276
11 | 44:43.52 | 8:54.73 | 201277 | 241399
Track 1
Filename D:\MYRIP\01 - Ghosts.wav
Pre-gap length 0:00:02.00
Peak level 97.7 %
Extraction speed 5.0 X
Track quality 100.0 %
Test CRC 56386609
Copy CRC 56386609
Accurately ripped (confidence 4) [05403F01] (AR v2)
Copy OK
Track 2
Filename D:\MYRIP\02 - Moderation.wav
Peak level 98.8 %
Extraction speed 5.1 X
Track quality 99.9 %
Test CRC BF9DCEBD
Copy CRC BF9DCEBD
Accurately ripped (confidence 4) [A79432A3] (AR v2)
Copy OK
Track 3
Filename D:\MYRIP\03 - Lose & win.wav
Pre-gap length 0:00:00.50
Peak level 99.7 %
Extraction speed 6.4 X
Track quality 100.0 %
Test CRC B25C3274
Copy CRC B25C3274
Accurately ripped (confidence 4) [8924CA41] (AR v2)
Copy OK
Track 4
Filename D:\MYRIP\04 - On the radio (interlude).wav
Peak level 44.0 %
Extraction speed 2.1 X
Track quality 99.6 %
Test CRC CEC7B345
Copy CRC CEC7B345
Accurately ripped (confidence 4) [B1EF4D28] (AR v2)
Copy OK
Track 5
Filename D:\MYRIP\05 - Drawback.wav
Peak level 91.2 %
Extraction speed 7.3 X
Track quality 100.0 %
Test CRC 2D784422
Copy CRC 2D784422
Accurately ripped (confidence 4) [E02AE9F6] (AR v2)
Copy OK
Track 6
Filename D:\MYRIP\06 - Waiting (interlude).wav
Peak level 38.0 %
Extraction speed 5.0 X
Track quality 100.0 %
Test CRC 48D5BD49
Copy CRC 48D5BD49
Accurately ripped (confidence 4) [A579A82A] (AR v2)
Copy OK
Track 7
Filename D:\MYRIP\07 - In a good way.wav
Peak level 92.4 %
Extraction speed 7.8 X
Track quality 100.0 %
Test CRC C63E79D1
Copy CRC C63E79D1
Accurately ripped (confidence 4) [CCB5F6E2] (AR v2)
Copy OK
Track 8
Filename D:\MYRIP\08 - Game.wav
Peak level 100.0 %
Extraction speed 8.1 X
Track quality 100.0 %
Test CRC 96BC70AC
Copy CRC 96BC70AC
Accurately ripped (confidence 4) [D9D86CE7] (AR v2)
Copy OK
Track 9
Filename D:\MYRIP\09 - Mobile bubble.wav
Pre-gap length 0:00:00.53
Peak level 93.9 %
Extraction speed 8.6 X
Track quality 100.0 %
Test CRC 632B676C
Copy CRC 632B676C
Accurately ripped (confidence 4) [7A9B3EEC] (AR v2)
Copy OK
Track 10
Filename D:\MYRIP\10 - Pantile.wav
Peak level 94.0 %
Extraction speed 9.0 X
Track quality 100.0 %
Test CRC B4BC524E
Copy CRC B4BC524E
Accurately ripped (confidence 4) [57075DAD] (AR v2)
Copy OK
Track 11
Filename D:\MYRIP\11 - Consolatory dance.wav
Pre-gap length 0:00:01.17
Peak level 94.3 %
Extraction speed 9.8 X
Track quality 100.0 %
Test CRC C9FAA765
Copy CRC C9FAA765
Accurately ripped (confidence 4) [C41CB790] (AR v2)
Copy OK
All tracks accurately ripped
No errors occurred
End of status report
==== Log checksum 9D2E6C4C270F9FFE82FF8219B9BBC3A489BCFF3A195FCCAF6CDE3D3E93EBFA52 ====
 
Содержание индексной карты (.CUE)
REM GENRE Jazz
REM DATE 2001
REM DISCID 870C920B
REM COMMENT "ExactAudioCopy v1.0b3"
PERFORMER "Beady Belle"
TITLE "Home"
FILE "01 - Ghosts.wav" WAVE
TRACK 01 AUDIO
TITLE "Ghosts"
PERFORMER "Beady Belle"
INDEX 01 00:00:00
FILE "02 - Moderation.wav" WAVE
TRACK 02 AUDIO
TITLE "Moderation"
PERFORMER "Beady Belle"
INDEX 01 00:00:00
TRACK 03 AUDIO
TITLE "Lose & win"
PERFORMER "Beady Belle"
INDEX 00 05:18:52
FILE "03 - Lose & win.wav" WAVE
INDEX 01 00:00:00
FILE "04 - On the radio (interlude).wav" WAVE
TRACK 04 AUDIO
TITLE "On the radio (interlude)"
PERFORMER "Beady Belle"
INDEX 01 00:00:00
FILE "05 - Drawback.wav" WAVE
TRACK 05 AUDIO
TITLE "Drawback"
PERFORMER "Beady Belle"
INDEX 01 00:00:00
FILE "06 - Waiting (interlude).wav" WAVE
TRACK 06 AUDIO
TITLE "Waiting (interlude)"
PERFORMER "Beady Belle"
INDEX 01 00:00:00
FILE "07 - In a good way.wav" WAVE
TRACK 07 AUDIO
TITLE "In a good way"
PERFORMER "Beady Belle"
INDEX 01 00:00:00
FILE "08 - Game.wav" WAVE
TRACK 08 AUDIO
TITLE "Game"
PERFORMER "Beady Belle"
INDEX 01 00:00:00
TRACK 09 AUDIO
TITLE "Mobile bubble"
PERFORMER "Beady Belle"
INDEX 00 04:39:52
FILE "09 - Mobile bubble.wav" WAVE
INDEX 01 00:00:00
FILE "10 - Pantile.wav" WAVE
TRACK 10 AUDIO
TITLE "Pantile"
PERFORMER "Beady Belle"
INDEX 01 00:00:00
TRACK 11 AUDIO
TITLE "Consolatory dance"
PERFORMER "Beady Belle"
INDEX 00 05:10:23
FILE "11 - Consolatory dance.wav" WAVE
INDEX 01 00:00:00
 
DR Log
foobar2000 1.1.10 / Dynamic Range Meter 1.1.1
log date: 2018-07-17 14:26:18
--------------------------------------------------------------------------------
Analyzed: Beady Belle / Home
--------------------------------------------------------------------------------
DR Peak RMS Duration Track
--------------------------------------------------------------------------------
DR6 -0.20 dB -8.79 dB 5:12 ?-Ghosts
DR6 -0.10 dB -8.24 dB 5:19 ?-Moderation
DR6 -0.02 dB -7.75 dB 4:32 ?-Lose & win
DR12 -7.12 dB -24.58 dB 0:32 ?-On the radio (interlude)
DR6 -0.80 dB -8.28 dB 7:14 ?-Drawback
DR13 -8.40 dB -31.11 dB 0:52 ?-Waiting (interlude)
DR9 -0.68 dB -11.88 dB 5:38 ?-In a good way
DR9 0.00 dB -10.65 dB 4:40 ?-Game
DR9 -0.54 dB -13.66 dB 5:33 ?-Mobile bubble
DR7 -0.53 dB -9.99 dB 5:12 ?-Pantile
DR7 -0.51 dB -9.63 dB 8:55 ?-Consolatory dance
--------------------------------------------------------------------------------
Number of tracks: 11
Official DR value: DR8
Samplerate: 44100 Hz
Channels: 2
Bits per sample: 16
Bitrate: 865 kbps
Codec: FLAC
================================================================================
 
Об исполнителе (группе)
2004 repress; originally released in 2001. The Beady Belle debut, coming out of the left-of-field music underground of Norway. A major shot in the "Nu Jazz" wars. Beady Belle is one of the freshest new sounds to come out of the left-of-field music underground of Norway. A collaboration between singer Beate Lech and bassist Marius Reksjø, Beady Belle's debut album Home is a sensuous mosaic of sound that draws on the vast libraries of jazz, pop, techno and ambient to reveal the essence of Beate's stunning live performances yet to manages to combine it with the deliberate strategies of her creative musicianship.
https://en.wikipedia.org/wiki/Beady_Belle
https://ru.wikipedia.org/wiki/Beady_Belle

Раздаю до первых 5-ти скачавших, на раздачи не возвращаюсь...
Скачивание доступно после регистрации!!
Приватный:
Нет (DHT включён)
Размер:
389.04 Мб (407,935,657 байт) » файлов: 22
Участники:
0 раздают, 0 качают (0 участников всего)
Внешние участники:
3 раздают, 1 качают (4 участников всего) [ Обновить ]
07:42
16
Нет комментариев. Ваш будет первым!